キミヱゴサーチ
ここなつ

EXTREME

Level: 8
BPM: 120
Notes: 630

1
口口口口 |----|
口①口口 |----|
口①口口 |----|
口口口口 |--①-|
2
⑥口口⑤ |①--②|
④口①② |--③-|
口口①② |④--⑤|
③口口口 |--⑥-|
3
口口口③ |①--②|
口③⑤② |--③-|
①口⑤④ |--④-|
口④口口 |--⑤-|
4
⑤口口⑥ |①--②|
②①口④ |--③-|
②①口口 |④--⑤|
口口口③ |--⑥-|
5
③口口口 |①--②|
②口③口 |--③-|
④⑤口① |--④-|
口口④口 |--⑤-|
6
口口口口 |①--②|
⑤口口② |--③-|
口⑥③口 |④--⑤|
④口口① |--⑥-|
7
口口口口 |①--②|
口④⑤② |--③-|
口口口口 |④-⑤-|
⑦③⑥① |⑥-⑦-|
8
口②②② |①--②|
③口口④ |----|
①①①口 |③---|
口口口口 |④---|
9
口⑤⑥② |①---|
口③⑦④ |----|
口①①口 |--②③|
口①①口 |④⑤⑥⑦|
10
⑤口⑥口 |①--②|
④⑦口口 |-③④⑤|
③⑩⑨② |⑥⑦-⑧|
①①①⑧ |-⑨⑩-|
11
⑤口⑥口 |①--②|
④⑦口口 |-③④⑤|
③⑩⑨② |⑥⑦-⑧|
①①①⑧ |-⑨⑩-|
12
口口口口 |①---|
口口口口 |②---|
①口口口
口①②②

口口口③
口口③口
④④口口 |③---|
口口口口 |④---|
13
口③口口 |①---|
③①④④ |②---|
口口①口 |③---|
口②②口 |④---|
14
口口⑤③ |①-②-|
口②口口 |③④⑤⑥|
④⑥口口
①口口口

⑩⑧口口
口⑫口⑪
口口⑦⑨ |⑦⑧⑨⑩|
口口口口 |⑪-⑫-|
15
③⑤口口 |①-②-|
口口②口 |③④⑤⑥|
口口⑥④
口口口①

口口⑧⑩
⑪口⑫口
⑨⑦口口 |⑦⑧⑨⑩|
口口口口 |⑪-⑫-|
16
①①口口 |--①-|
口①口口 |-②--|
口口②②
口口②口

口⑤⑥口
口⑦④口
③口⑧口 |③-④⑤|
③③口口 |⑥⑦⑧-|
17
③口口口 |①②③-|
②口口口 |④⑤⑥⑦|
口①口口
⑦⑥⑤④

⑪口口⑩
口⑨⑧口
⑧⑩⑪⑨ |⑧-⑨-|
口口口口 |⑩-⑪-|
18
口口口口 |-①②③|
①⑦口⑥ |④⑤⑥⑦|
②口口⑤
口③④口

⑨口⑧口
⑪口⑩口
⑬口⑫口 |⑧⑨⑩⑪|
⑮口⑭口 |⑫⑬⑭⑮|
19
口④③口 |-①②③|
⑤口口② |④⑤⑥⑦|
⑥口⑦①
口口口口

口⑭口⑮
口⑫口⑬
口⑩口⑪ |⑧⑨⑩⑪|
口⑧口⑨ |⑫⑬⑭⑮|
20
⑦口口口 |-①②③|
①口⑥口 |④⑤⑥⑦|
⑤口②口
③口④口

口口口⑧
⑩⑨口口
口口⑪口 |⑧-⑨-|
口口口口 |⑩-⑪-|
21
⑨⑧⑦口 |-①②③|
口⑥口① |④⑤⑥-|
口②口⑤ |⑦-⑧-|
口④口③ |⑨---|
22
口口③口 |①--②|
口口口口 |--③-|
①②口②
口③①口

口口口口
口⑤④口
⑥口口口 |--④-|
口口口口 |⑤-⑥-|
23
②口②口 |①--②|
口③口口 |--③-|
口④⑤① |--④-|
口①③⑥ |⑤-⑥-|
24
口口口① |①--②|
②口①③ |----|
口口③① |③--④|
④口口③ |----|
25
①口口口 |①--②|
③①口② |----|
①③口口 |③--④|
③口口④ |----|
26
口口③口 |①--②|
口口口口 |--③-|
①②口②
口③①口

口口口口
口⑤④口
⑥口口口 |--④-|
口口口口 |⑤-⑥-|
27
口口口口 |①-②-|
口口口口 |③-④-|
口③口①
④口②口

⑦口口⑦
⑥口口⑥
⑤口口⑤ |--⑤-|
口口口口 |⑥-⑦-|
28
口口口口 |--①-|
口②口口 |②-③-|
②③①口
③口口①

口口口口
⑥⑦④⑥
口口⑦④ |④-⑤-|
口⑤⑤口 |⑥-⑦-|
29
①①①① |①---|
口②口口 |----|
口口③口 |----|
⑤⑥⑦④ |②③④⑤⑥⑦|
30
①③②⑤ |①--②|
②③③① |--③-|
口①③② |--④-|
④口口④ |--⑤-|
31
④口口口 |①②-③|
口①⑤口 |--④-|
②口口⑥ |⑤⑥-⑦|
⑦口口③ |----|
32
⑤②③① |①--②|
①③③② |--③-|
②③①口 |--④-|
④口口④ |--⑤-|
33
口口口④ |①②-③|
⑤口①口 |--④-|
口⑦⑥② |⑤-⑥⑦|
③口口口 |----|
34
口口口口 |①--②|
③口③口 |--③-|
口③口口
①②①②

口口口口
口④口⑥
口口口口 |--④-|
口⑤口口 |⑤-⑥-|
35
②⑤②⑤ |①--②|
④④④④ |--③-|
③①③① |--④-|
口口口口 |⑤---|
36
口口口口 |--①-|
口②⑤口 |②-③-|
①⑥③④ |--④-|
口口口口 |⑤-⑥-|
37
口①①⑤ |①-②-|
③④⑤③ |③-④-|
口⑤④口 |--⑤-|
⑤②②口 |----|
38
口①③⑤ |①--②|
①②②③ |--③-|
②③①② |--④-|
③④④① |--⑤-|
39
④口⑧口 |①②-③|
口口口口 |--④-|
②①⑤⑥ |⑤⑥-⑦|
⑦口口③ |--⑧-|
40
③口口① |①--②|
②③①② |--③-|
①②②③
口①③口

口口口⑤
口口口口
口口口口 |--④-|
④口口④ |--⑤-|
41
④口口口 |①②-③|
口口口口 |--④-|
口①口③
口②口口

口口口口
口口口口
⑦口⑤口 |⑤⑥-⑦|
口⑧⑥口 |--⑧-|
42
②口口口 |①--②|
口②口① |--③-|
口②口口
口口③①

口口⑤口
④口⑤口
口口口⑤ |④--⑤|
④⑥口⑥ |--⑥-|
43
⑤②⑤② |①--②|
④④④④ |--③-|
①③①③ |--④-|
口口口口 |⑤---|
44
口口口口 |--①-|
口②⑤口 |②-③-|
①⑥③④ |--④-|
口口口口 |⑤-⑥-|
45
口①①口 |①-②-|
③④口③ |③-④-|
口口④口
口②②口

⑧⑦⑥⑤
口口⑤口
口⑤口口 |--⑤-|
⑤⑪⑩⑨ |⑥⑦⑧⑨⑩⑪|
46
口口口口 |①-②-|
①④口② |③-④-|
①口③口
口口口口

口口口口
⑤口⑦口
口⑥口口 |--⑤-|
口口口口 |⑥-⑦-|
47
口①①口 |①-②-|
口③口口 |③-④-|
口口③口
④②②④

⑤⑨⑥⑤
⑤⑩⑦⑤
⑤⑪⑧⑤ |--⑤-|
口口口口 |⑥⑦⑧⑨⑩⑪|
48
⑤口⑥口 |①--②|
④⑦口口 |-③④⑤|
③⑩⑨② |⑥⑦-⑧|
①①①⑧ |-⑨⑩-|
49
⑤口⑥口 |①--②|
④⑦口口 |-③④⑤|
③⑩⑨② |⑥⑦-⑧|
①①①⑧ |-⑨⑩-|
50
口口口口 |①---|
口口口口 |②---|
①口口口
口①②②

口口口③
口口③口
④④口口 |③---|
口口口口 |④---|
51
口③口口 |①---|
③①④④ |②---|
口口①口 |③---|
口②②口 |④---|
52
口口⑤③ |①-②-|
口②口口 |③④⑤⑥|
④⑥口口
①口口口

⑩⑧口口
口⑫口⑪
口口⑦⑨ |⑦⑧⑨⑩|
口口口口 |⑪-⑫-|
53
③⑤口口 |①-②-|
口口②口 |③④⑤⑥|
口口⑥④
口口口①

口口⑧⑩
⑪口⑫口
⑨⑦口口 |⑦⑧⑨⑩|
口口口口 |⑪-⑫-|
54
①①口口 |--①-|
口①口口 |-②--|
口口②②
口口②口

口⑤⑥口
口⑦④口
③口⑧口 |③-④⑤|
③③口口 |⑥⑦⑧-|
55
④口⑦口 |①②③④|
⑤口⑧① |⑤⑥⑦⑧|
⑥口口②
口口口③

口⑩口口
口⑨口⑪
口⑫⑬⑪ |⑨⑩-⑪|
口口口⑭ |-⑫⑬⑭|
56
口口口口 |-①②③|
①⑦口⑥ |④⑤⑥⑦|
②口口⑤
口③④口

⑨口⑧口
⑪口⑩口
⑬口⑫口 |⑧⑨⑩⑪|
⑮口⑭口 |⑫⑬⑭⑮|
57
口④③口 |-①②③|
⑤口口② |④⑤⑥⑦|
⑥口⑦①
口口口口

口⑭口⑮
口⑫口⑬
口⑩口⑪ |⑧⑨⑩⑪|
口⑧口⑨ |⑫⑬⑭⑮|
58
⑦口口口 |-①②③|
①口⑥口 |④⑤⑥⑦|
⑤口②口
③口④口

口口口⑧
⑩⑨口口
口口⑪口 |⑧-⑨-|
口口口口 |⑩-⑪-|
59
⑨⑧⑦口 |-①②③|
口⑥口① |④⑤⑥-|
口②口⑤ |⑦-⑧-|
口④口③ |⑨---|

不確定度: 0

最終更新:2016年06月10日 15:47