ミライプリズム
ここなつ

ADVANCED

Level: 6
BPM: 140
Notes: 433

1
口口口口 |----|
口口口口 |----|
口口口口 |----|
口口口口 |----|
2
口口口口 |----|
口口①口 |----|
口口口② |--①-|
口口③口 |②-③-|
3
口口口口 |①-②-|
口③④口 |③-④-|
②⑦口⑤ |⑤-⑥-|
口①⑥口 |--⑦-|
4
口④③口 |①-②-|
口口口② |③-④-|
口口①口
口口口口

口口口口
⑤口口口
口⑥⑦口 |⑤-⑥-|
口口口口 |--⑦-|
5
②口口⑤ |①-②-|
⑥①④⑦ |--③-|
口③口口 |④-⑤-|
口口口口 |⑥-⑦-|
6
口①②口 |①-②-|
口③④口 |③-④-|
⑦⑤⑥口 |⑤-⑥-|
口口口口 |--⑦-|
7
口口口口 |①---|
①口口口 |--②-|
口②口④ |----|
口口③口 |③-④-|
8
口口口口 |①---|
口口口① |--②-|
口口②口 |----|
口③口口 |③---|
9
①口口口 |①---|
⑤②口口 |--②-|
口④③口 |--③-|
口口口口 |④-⑤-|
10
口①④口 |①-②-|
⑤③②⑥ |③-④-|
口口口口 |⑤-⑥-|
口口口口 |----|
11
口口口口 |①-②-|
口③④口 |③-④-|
②⑦口⑤ |⑤-⑥-|
口①⑥口 |--⑦-|
12
口④③口 |①-②-|
口口口② |③-④-|
口口①口
口口口口

口口口口
⑤口口口
口⑥⑦口 |⑤-⑥-|
口口口口 |--⑦-|
13
②口口⑤ |①-②-|
⑥①④⑦ |--③-|
口③口口 |④-⑤-|
口口口口 |⑥-⑦-|
14
口①②口 |①-②-|
口③④口 |③-④-|
⑦⑤⑥口 |⑤-⑥-|
口口口口 |--⑦-|
15
口口口口 |①---|
①口口口 |--②-|
口②口④ |----|
口口③口 |③-④-|
16
口口口口 |①---|
口口口① |--②-|
口口②口 |----|
口③口口 |③---|
17
①口口口 |①---|
口②口口 |--②-|
口④③口 |--③-|
口口口口 |④---|
18
口⑤⑤口 |①-②-|
③④②① |③-④-|
口口口口 |--⑤-|
口口口口 |----|
19
①口口① |①---|
口①①口 |--②-|
口③③口 |----|
②口口② |--③-|
20
口①①口 |--①-|
②口口② |--②-|
口口口口
口口口口

口口⑤口
口④口口
口口③口 |--③-|
口口口口 |④-⑤-|
21
③①③① |①---|
口⑤⑤口 |②---|
②④②④ |③---|
口口口口 |④-⑤-|
22
口口口口 |--①-|
口口口口 |--②-|
②④③② |--③-|
口①①口 |④---|
23
口口口口 |①---|
①③①③ |②---|
口⑤⑤口 |③---|
④②④② |④-⑤-|
24
口①①口 |--①-|
②口口② |--②-|
口口口口
口口口口

口口⑤口
口④口口
口口③口 |--③-|
口口口口 |④-⑤-|
25
③①③① |①---|
口⑤⑤口 |②---|
②④②④ |③---|
口口口口 |④-⑤-|
26
口口口口 |--①-|
口口口口 |--②-|
②④③② |--③-|
口①①口 |④---|
27
口④③口 |--①-|
⑥②口⑤ |②-③④|
①口口口 |--⑤-|
口口口口 |⑥---|
28
口③④口 |--①-|
⑤口②⑥ |②-③④|
口口口① |--⑤-|
口口口口 |⑥---|
29
口④③口 |--①-|
⑥②口⑤ |②-③④|
①口口⑦ |--⑤-|
口口口口 |⑥-⑦-|
30
口口口口 |①---|
口口②口 |②-③-|
①口③口 |--④-|
④口口口 |----|
31
口③④口 |--①-|
⑤口②⑥ |②-③④|
口口口① |--⑤-|
口口口口 |⑥---|
32
口④③口 |--①-|
⑥②口⑤ |②-③④|
①口口口 |--⑤-|
口口口口 |⑥---|
33
口③④口 |--①-|
⑤口②⑥ |②-③④|
⑦口口① |--⑤-|
口口口口 |⑥-⑦-|
34
口④③口 |①---|
口口口口 |②-③-|
口②⑤① |--④-|
口口口口 |⑤---|
35
口口口口 |①---|
①①口口 |②---|
口口口口
②②口口

口口口口
⑥口③口
⑤④口口 |③-④-|
口口口口 |⑤-⑥-|
36
口口口口 |①-②-|
口①口口 |--③-|
口口②口
③口口口

口口口口
口⑥口口
口⑤口口 |--④-|
口④口口 |⑤-⑥-|
37
口口口口 |①---|
口口①① |②---|
口口口口
口口②②

口口口口
口③口⑥
口口④⑤ |③-④-|
口口口口 |⑤-⑥-|
38
口口②口 |--①-|
①口③口 |②-③-|
④⑤⑥口 |--④-|
口口口口 |⑤-⑥-|
39
①①口口 |①---|
②②④口 |②---|
③③口口 |③-④-|
口⑤⑥⑥ |⑤-⑥-|
40
⑤口口④ |--①-|
口口②② |--②-|
口口①① |--③-|
③口口口 |④-⑤-|
41
口口口口 |①---|
口②②口 |②-③-|
口③③口
口口口①

⑤⑤⑤⑤
口口口口
口口口口 |--④-|
④口口④ |--⑤-|
42
口口口口 |----|
②口口① |----|
口②①口 |①---|
口口③口 |②-③-|
43
口口口口 |①-②-|
口③④口 |③-④-|
②⑦口⑤ |⑤-⑥-|
口①⑥口 |--⑦-|
44
口④③口 |①-②-|
口口口② |③-④-|
口口①口
口口口口

口口口口
⑤口口口
口⑥⑦口 |⑤-⑥-|
口口口口 |--⑦-|
45
②口口⑤ |①-②-|
⑥①④⑦ |--③-|
口③口口 |④-⑤-|
口口口口 |⑥-⑦-|
46
口①②口 |①-②-|
口③④口 |③-④-|
⑦⑤⑥口 |⑤-⑥-|
口口口口 |--⑦-|
47
口口口口 |①---|
①①口口 |--②-|
口②口④ |----|
口口③口 |③-④-|
48
口口口口 |①---|
口口①① |--②-|
口口②口 |----|
口③口口 |③---|
49
①口口① |①---|
⑤②②口 |--②-|
口④③口 |--③-|
口口口口 |④-⑤-|
50
口①④口 |①-②-|
⑤③②⑥ |③-④-|
口口口口 |⑤-⑥-|
口口口口 |----|
51
口口口口 |①-②-|
口③④口 |③-④-|
②⑦口⑤ |⑤-⑥-|
口①⑥口 |--⑦-|
52
口④③口 |①-②-|
口口口② |③-④-|
口口①口
口口口口

口口口口
⑤口口口
口⑥⑦口 |⑤-⑥-|
口口口口 |--⑦-|
53
②口口⑤ |①-②-|
⑥①④⑦ |--③-|
口③口口 |④-⑤-|
口口口口 |⑥-⑦-|
54
口①②口 |①-②-|
口③④口 |③-④-|
⑦⑤⑥口 |⑤-⑥-|
口口口口 |--⑦-|
55
口口口口 |①---|
①①口口 |--②-|
口②口④ |----|
口口③口 |③-④-|
56
口口口口 |①---|
口口①① |--②-|
口口②口 |----|
口③口口 |③---|
57
①口口① |①---|
口②②口 |--②-|
口④③口 |--③-|
口口口口 |④---|
58
口⑤⑤口 |①-②-|
③④②① |③-④-|
口口口口 |--⑤-|
口口口口 |----|
59
①口口① |①---|
口①①口 |--②-|
口③③口 |----|
②口口② |--③-|
60
口①①口 |--①-|
②口口② |--②-|
口口口口
口口口口

口口⑤口
口④口口
口口③口 |--③-|
口口口口 |④-⑤-|
61
③①③① |①---|
口⑤⑤口 |②---|
②④②④ |③---|
口口口口 |④-⑤-|
62
口口口口 |--①-|
口口口口 |--②-|
②④③② |--③-|
口①①口 |④---|
63
口口口口 |①---|
①③①③ |②---|
口⑤⑤口 |③---|
④②④② |④-⑤-|
64
口①①口 |--①-|
②口口② |--②-|
口口口口
口口口口

口口⑤口
口④口口
口口③口 |--③-|
口口口口 |④-⑤-|
65
③①③① |①---|
口⑤⑤口 |②---|
②④②④ |③---|
口口口口 |④-⑤-|
66
口口口口 |--①-|
口口口口 |--②-|
②④③② |--③-|
口①①口 |④---|
67
口①①口 |①---|
口①①口 |----|
口口口口 |----|
口口口口 |----|

不確定度: 0

最終更新:2016年06月09日 22:17