ミライプリズム
ここなつ

EXTREME

Level: 8
BPM: 140
Notes: 658

1
口口口口 |----|
口口口口 |----|
口口口口 |----|
口口口口 |----|
2
口口口口 |----|
口②①口 |----|
口③口口 |--①-|
口口口口 |②-③-|
3
⑤口口口 |①-②-|
④⑥口口 |③-④-|
③口⑦口 |⑤-⑥-|
②①口口 |--⑦-|
4
口口口⑤ |①-②-|
口口⑥④ |③-④-|
口口口③ |⑤-⑥-|
⑦口①② |--⑦-|
5
②口口口 |①-②-|
口口口口 |--③-|
口口①口
口口口③

口口口⑤
口口口口
口④⑦口 |④-⑤-|
⑥口口口 |⑥-⑦-|
6
口口③口 |①-②-|
口④⑦口 |③-④-|
口②⑤口 |⑤-⑥-|
口⑥口① |--⑦-|
7
①口口口 |①---|
口④口口 |--②-|
口口②口 |----|
③口口口 |③-④-|
8
口口口① |①---|
口口口口 |--②-|
口②口口 |----|
口口口③ |③---|
9
①口口② |①---|
口④③口 |--②-|
口⑤口口 |--③-|
口口口口 |④-⑤-|
10
④口口① |①-②-|
⑥口口⑤ |③-④-|
口口口口 |⑤-⑥-|
②口口③ |----|
11
⑤口①② |①-②-|
④⑥⑦③ |③-④-|
③⑦⑥④ |⑤-⑥-|
②①口⑤ |--⑦-|
12
②①口⑤ |①-②-|
③口⑥④ |③-④-|
④⑥口③ |⑤-⑥-|
⑤⑦①② |--⑦-|
13
②口口口 |①-②-|
口口口口 |--③-|
口口①口
口口③口

口口口⑤
口口口口
口④⑦口 |④-⑤-|
⑥口口口 |⑥-⑦-|
14
口口③口 |①-②-|
口④⑦口 |③-④-|
口②⑤口 |⑤-⑥-|
口⑥口① |--⑦-|
15
①口口口 |①---|
口④口口 |--②-|
口口②口 |----|
③口口口 |③-④-|
16
口口口① |①---|
口口口口 |--②-|
口②口口 |----|
口口口③ |③---|
17
口①口① |①---|
②口②口 |--②-|
口口口口 |--③-|
口④③口 |④---|
18
③④②① |①-②-|
口口口口 |③-④-|
③④②①
口口口口

口口⑥口
⑤⑤⑤⑤
口口口⑥ |--⑤-|
口口口口 |⑥---|
19
①口口① |①---|
③②②③ |②-③-|
③①①③
口口口口

口④④⑥
口⑥口口
口口⑥口 |④---|
口⑤⑤口 |⑤-⑥-|
20
①口口口 |--①-|
②口①② |--②-|
口①⑤口 |--③-|
口③④口 |④-⑤-|
21
口口口口 |①---|
口口①② |②---|
②①口口
口口口口

口口⑤口
④③口⑤
⑤口③④ |③---|
口⑤口口 |④-⑤-|
22
③②口③ |--①-|
②①①口 |--②-|
口①①② |--③-|
④口②④ |④---|
23
口口口口 |①---|
口②①口 |②---|
②口口①
口口口口

⑤③③口
口⑤口口
口口⑤口 |③---|
口④④口 |④-⑤-|
24
口口口① |--①-|
②口①② |--②-|
口①⑤口 |--③-|
口③④口 |④-⑤-|
25
口口口② |①---|
口口①口 |②---|
②①口口
口口口口

④⑤口口
口③口⑤
⑤口③④ |③---|
口口⑤口 |④-⑤-|
26
③口②③ |--①-|
②①①口 |--②-|
口①①② |--③-|
④②口④ |④---|
27
口⑤④口 |①-②-|
⑥①①③ |③-④⑤|
口①①口 |--⑥-|
⑦口②口 |⑦---|
28
口⑤④口 |①-②-|
⑥口口③ |③-④⑤|
口①①口 |--⑥-|
⑦口②口 |⑦---|
29
口⑤④口 |①-②-|
口口口③ |③-④⑤|
口①①口
口口②口

口口口口
⑥口口⑧
口口口口 |--⑥-|
⑦口口口 |⑦-⑧-|
30
口口口② |①---|
口①②口 |②-③-|
④③①④ |--④-|
③口口口 |----|
31
口④⑤口 |①-②-|
③口口⑥ |③-④⑤|
口①①口 |--⑥-|
口②口⑦ |⑦---|
32
口④⑤口 |①-②-|
③口口⑥ |③-④⑤|
口①①口 |--⑥-|
口②口⑦ |⑦---|
33
口④⑤口 |①-②-|
③口口口 |③-④⑤|
口①①口
口②口口

口口口口
⑧口口⑥
口口口口 |--⑥-|
口口口⑦ |⑦-⑧-|
34
口③口口 |①---|
④④①③ |②-③-|
②①⑤⑤ |--④-|
口口②口 |⑤---|
35
③①③① |①---|
④⑤①⑥ |②---|
③②③口 |③-④-|
②口②口 |⑤-⑥-|
36
口②口③ |①-②-|
⑥口①口 |--③-|
口口⑤口 |--④-|
④口口③ |⑤-⑥-|
37
口①①口 |①---|
口①口② |②---|
②①口口
②②口口

③口口口
口口口口
口口⑤④ |③-④-|
口⑥口③ |⑤-⑥-|
38
口口②② |--①-|
①口③③ |②-③-|
口口口口
口口口口

口口口口
⑥口口口
口口⑤口 |--④-|
④口口口 |⑤-⑥-|
39
①口①② |①---|
口②口口 |②---|
口①口②
口口口口

④口口口
⑤口③口
⑥口⑥口 |③-④-|
口③口③ |⑤-⑥-|
40
②口②口 |--①-|
口①口① |--②-|
口口口口
口口口口

口口口口
口⑤④口
口口口③ |--③-|
口口口口 |④-⑤-|
41
⑤口口⑤ |①---|
口④④口 |②-③-|
①②②口 |--④-|
口③③口 |--⑤-|
42
口①④口 |①②③④|
⑦口口⑥ |⑤⑥⑦⑧|
口③②口
⑤口口⑧

⑨⑩口⑨
口⑪⑩口
⑨⑩⑪⑨ |⑨---|
口口⑩口 |⑩-⑪-|
43
⑤口①② |①-②-|
④⑥⑦③ |③-④-|
③⑦⑥④ |⑤-⑥-|
②①口⑤ |--⑦-|
44
②①口⑤ |①-②-|
③口⑥④ |③-④-|
④⑥口③ |⑤-⑥-|
⑤⑦①② |--⑦-|
45
口口口口 |①-②-|
②口口口 |--③-|
②口①口
口口③口

口口口口
口口⑦⑤
口④⑦⑤ |④-⑤-|
⑥口口口 |⑥-⑦-|
46
口③③口 |①-②-|
④②口④ |③-④-|
口②口口
口口口①

口⑦⑦口
口口口口
⑤口口⑤ |⑤-⑥-|
口⑥⑥口 |--⑦-|
47
①⑥⑥口 |①---|
③口①② |②-③-|
⑤口③④ |④---|
口口⑤⑤ |⑤-⑥-|
48
口口口① |①---|
②①口③ |②-③-|
④③口⑤ |④---|
⑤⑤口口 |⑤---|
49
①③③① |①---|
③①①③ |②-③-|
口②②口
口口口口

⑥口口口
口⑥口口
口口口口 |--④-|
口⑤④口 |⑤-⑥-|
50
口口口① |①-②-|
口口①口 |③-④-|
口③②口
③④④②

⑥口口口
⑤⑥口⑤
⑤口⑥⑤ |--⑤-|
口口口口 |⑥---|
51
⑤口①② |①-②-|
④⑥⑦③ |③-④-|
③⑦⑥④ |⑤-⑥-|
②①口⑤ |--⑦-|
52
②①口⑤ |①-②-|
③口⑥④ |③-④-|
④⑥口③ |⑤-⑥-|
⑤⑦①② |--⑦-|
53
②口口口 |①-②-|
口口口口 |--③-|
②口①口
口口③口

口口口⑤
口口⑦口
口④⑦⑤ |④-⑤-|
⑥口口口 |⑥-⑦-|
54
口③③口 |①-②-|
④②口④ |③-④-|
口②口口
口口口①

口⑦⑦口
口口口口
⑤口口⑤ |⑤-⑥-|
口⑥⑥口 |--⑦-|
55
①⑥⑥口 |①---|
③口①② |②-③-|
⑤口③④ |④---|
口口⑤⑤ |⑤-⑥-|
56
口口口① |①---|
②①口③ |②-③-|
④③口⑤ |④---|
⑤⑤口口 |⑤---|
57
③①③① |①---|
①③①③ |②-③-|
口②②口 |--④-|
口⑤④口 |⑤---|
58
③④②① |①-②-|
口口口口 |③-④-|
③④②①
口口口口

口口⑥口
⑤⑤⑤⑤
口口口⑥ |--⑤-|
口口口口 |⑥---|
59
①口口① |①---|
③②②③ |②-③-|
③①①③
口口口口

口④④⑥
口⑥口口
口口⑥口 |④---|
口⑤⑤口 |⑤-⑥-|
60
①口口口 |--①-|
②口①② |--②-|
口①⑤口 |--③-|
口③④口 |④-⑤-|
61
口口口口 |①---|
口口①② |②---|
②①口口
口口口口

口口⑤口
④③口⑤
⑤口③④ |③---|
口⑤口口 |④-⑤-|
62
③②口③ |--①-|
②①①口 |--②-|
口①①② |--③-|
④口②④ |④---|
63
口口口口 |①---|
口②①口 |②---|
②口口①
口口口口

⑤③③口
口⑤口口
口口⑤口 |③---|
口④④口 |④-⑤-|
64
口口口① |--①-|
②口①② |--②-|
口①⑤口 |--③-|
口③④口 |④-⑤-|
65
口口口② |①---|
口口①口 |②---|
②①口口
口口口口

④⑤口口
口③口⑤
⑤口③④ |③---|
口口⑤口 |④-⑤-|
66
③口②③ |--①-|
②①①口 |--②-|
口①①② |--③-|
④②口④ |④---|
67
口口口口 |①---|
①口口① |----|
口①①口 |----|
口口口口 |----|

不確定度: 0

最終更新:2016年06月09日 22:17