混ぜるな危険
筋肉少女帯

EXTREME

Level: 7
BPM: 178
Notes: 504

1
口口口口 |----|
口口口口 |----|
口口口口 |----|
口口口口 |----|
2
口口口口 |----|
口口口口 |----|
口口口口 |----|
口口口口 |----|
3
口口口口 |----|
口口口口 |----|
口口口口 |----|
口口口口 |----|
4
口②①② |①---|
③①③① |--②-|
口②①② |----|
③口③口 |③---|
5
②口②口 |--①-|
口①口口 |----|
①③①③ |②-③-|
口①口口 |----|
6
③口口③ |①-②-|
口③③口 |--③-|
口口口口 |----|
②①①② |----|
7
口③③口 |①-②-|
③口口③ |--③-|
口①①口 |----|
口②②口 |----|
8
口口口口 |①-②-|
⑧⑦⑥⑤ |③-④-|
①②③④ |⑤-⑥-|
口口口口 |⑦-⑧-|
9
口③③口 |①-②-|
口口口口 |--③-|
口口口口 |----|
②①①② |----|
10
口③③口 |①-②-|
③①①③ |--③-|
口口口口 |----|
口②②口 |----|
11
③口口③ |①-②-|
口③③口 |--③-|
①口口① |----|
口②②口 |----|
12
口②①口 |①-②-|
③口口⑧ |③-④-|
④口口⑦ |⑤-⑥-|
口⑤⑥口 |⑦-⑧-|
13
②口口① |①-②-|
口⑤⑤口 |③-④-|
口⑤⑤口 |----|
③口口④ |⑤---|
14
口①②口 |①---|
②口口① |--②-|
口口口③ |----|
口口③口 |③---|
15
口③②口 |--①-|
③口口② |----|
①②③口 |②---|
口①口口 |③---|
16
②口口① |①---|
口①②口 |--②-|
口口③口 |----|
口口口③ |③---|
17
口②③口 |--①-|
②口口③ |----|
②①口③ |②---|
①口口口 |③---|
18
口③口③ |--①-|
④口②口 |②---|
⑤口①口 |③---|
口口口口 |④-⑤-|
19
口口⑤口 |①-②-|
口⑥口口 |③-④-|
⑦③④口 |--⑤-|
口①②口 |⑥-⑦-|
20
④⑤口口 |--①-|
⑥口⑦③ |②-③-|
口口②① |④-⑤-|
口口口口 |⑥-⑦-|
21
④口口④ |①-②-|
口①口口 |③-④-|
口③②口 |----|
口口口口 |----|
22
③口③口 |--①-|
口②口④ |②---|
口①口⑤ |③---|
口口口口 |④-⑤-|
23
口口口⑤ |①-②-|
口⑥口口 |③-④-|
口④③口 |--⑤-|
口②①⑦ |⑥-⑦-|
24
口⑤⑤口 |①-②-|
③⑥④口 |③-④-|
口口口⑦ |⑤---|
①口②口 |⑥-⑦-|
25
④口口④ |①-②-|
口口口口 |③-④-|
③②①口 |----|
口口口口 |----|
26
口④口④ |--①-|
⑤口③口 |②-③-|
⑥口②口 |④---|
口口①口 |⑤-⑥-|
27
口口⑤口 |①-②-|
口⑥口口 |③-④-|
⑦③④口 |--⑤-|
口①②口 |⑥-⑦-|
28
④⑤口口 |--①-|
⑥口⑦③ |②-③-|
口口②① |④-⑤-|
口口口口 |⑥-⑦-|
29
④口口④ |①-②-|
口①口口 |③-④-|
口③②口 |----|
口口口口 |----|
30
③④③④ |--①-|
口②⑤口 |②---|
口①口⑥ |③-④-|
口口口口 |⑤-⑥-|
31
口口口⑤ |①-②-|
口⑥口口 |③-④-|
口④③口 |--⑤-|
口②①⑦ |⑥-⑦-|
32
口②口口 |--①-|
口⑤③① |--②-|
口⑥④口 |③-④-|
口口口口 |⑤-⑥-|
33
①④④② |①-②-|
口口口口 |③-④-|
口口口口 |----|
②③③① |----|
34
①口口口 |①---|
口①口口 |----|
口口①口
口口口口

口④口③
②④口③
口②口口 |②---|
口口②口 |③-④-|
35
口口口口 |----|
口口口口 |----|
口口口口 |----|
口口口口 |----|
36
①⑤①⑦ |①-②-|
⑤②⑥② |③-④-|
③⑥③口 |⑤-⑥-|
⑦④口④ |--⑦-|
37
口口口口 |----|
口口口口 |----|
口口口口 |----|
口口口口 |----|
38
口口口④ |--①-|
口⑤③口 |②-③-|
口⑥口② |④---|
口口①口 |⑤-⑥-|
39
①口①口 |①---|
⑥口口④ |②-③-|
②口②口 |④-⑤-|
⑦③口⑤ |⑥-⑦-|
40
②③口① |①-②-|
⑧口口⑦ |③-④-|
⑤⑥口④ |⑤-⑥-|
口口口口 |⑦-⑧-|
41
口口口口 |①-②-|
口①口口 |③-④-|
口口口口
③④口②

⑥⑥口口
⑧⑧口口
⑦⑦口⑤ |⑤-⑥-|
口口口口 |⑦-⑧-|
42
⑤⑥④④ |①-②-|
⑧口⑦⑦ |③-④-|
口口口口 |⑤-⑥-|
②③①① |⑦-⑧-|
43
⑥⑥⑥⑥ |①-②-|
口①口口 |③-④-|
③④②② |⑤-⑥-|
口⑤⑤口 |----|
44
口口口口 |①-②-|
③③②① |--③-|
③③②① |----|
口口口口 |----|
45
③③②① |①-②-|
③③②① |--③-|
口口口口 |----|
口口口口 |----|
46
③⑦⑤① |①-②-|
口口口口 |③-④-|
口口口口 |⑤-⑥-|
④⑧⑥② |⑦-⑧-|
47
③口口③ |①-②-|
口①②口 |--③-|
口②①口 |----|
口口口口 |----|
48
口口口口 |①-②-|
①②③③ |--③-|
①②③③ |----|
口口口口 |----|
49
①②③③ |①-②-|
①②③③ |--③-|
口口口口 |----|
口口口口 |----|
50
⑧口⑥口 |①-②-|
口⑦口⑤ |③-④-|
①口③口 |⑤-⑥-|
口②口④ |⑦-⑧-|
51
口口口口 |----|
口口口口 |----|
口口口口 |----|
口口口口 |----|
52
口口口口 |①-②-|
口口口口 |--③-|
③③②① |----|
③③②① |----|
53
①②③③ |①-②-|
①②③③ |--③-|
口口口口 |----|
口口口口 |----|
54
①①⑤⑤ |①-②-|
②②⑥⑥ |③-④-|
③③⑦⑦ |⑤-⑥-|
④④⑧⑧ |⑦-⑧-|
55
③③③③ |①-②-|
①①口口 |--③-|
②②口口 |----|
口口口口 |----|
56
口口口口 |①-②-|
口口口口 |--③-|
①②③③ |----|
①②③③ |----|
57
③③②① |①-②-|
③③②① |--③-|
口口口口 |----|
口口口口 |----|
58
⑤⑤①① |①-②-|
⑥⑥②② |③-④-|
⑦⑦③③ |⑤-⑥-|
⑧⑧④④ |⑦-⑧-|
59
口⑤⑤① |①-②-|
口口②口 |③-④-|
口⑥⑥③ |⑤---|
口口④口 |⑥---|
60
口③口口 |①---|
①②①② |--②-|
③口③口 |----|
口①②口 |③---|
61
③口①② |--①-|
口口口口 |----|
口①口① |②---|
②口口③ |③---|
62
口口③口 |①---|
②①①③ |--②-|
口②②① |----|
口口口口 |③---|
63
口②③口 |--①-|
②口口③ |----|
①口口口 |②---|
③①口② |③---|
64
口口口③ |①---|
③①②口 |--②-|
口②①③ |----|
口口口口 |③---|
65
①口口口 |--①-|
口②②① |----|
①③③口 |②---|
口口口口 |③---|
66
口②①③ |①---|
口口③口 |--②-|
①③口② |----|
③①②口 |③---|
67
①②②口 |--①-|
②①口② |----|
③口①③ |②---|
口③③① |③---|
68
③③口口 |----|
③③①口 |--①②|
口口②口 |③---|
口口口口 |----|

不確定度: 0

最終更新:2016年07月27日 16:46