Glitter Flatter Scatter
Project B-

BASIC

Level: 6
BPM: 197
Notes: 503

1
口口口口 |----|
口口口口 |----|
口口口口 |----|
口口口口 |----|
2
①口口① |①---|
口口口口 |----|
口口口口 |----|
口口口口 |----|
3
口口口口 |----|
口口口口 |----|
口口口口 |----|
口口口口 |----|
4
口口口口 |①---|
①口口① |----|
口口口口 |----|
口口口口 |----|
5
口口口口 |----|
口口口口 |----|
口口口口 |----|
口口口口 |----|
6
口口口口 |①---|
口口口口 |----|
①口口① |----|
口口口口 |----|
7
口口口口 |----|
口口口口 |----|
口口口口 |----|
口口口口 |----|
8
口口口口 |①---|
口口口口 |----|
口口口口 |----|
①口口① |----|
9
口口口口 |----|
口口口口 |----|
口口口口 |----|
口口口口 |----|
10
②③⑤④ |①---|
口①①口 |②-③-|
口口口口 |--④-|
口口口口 |⑤---|
11
口口口口 |①---|
④①①④ |②---|
口②②口 |③---|
口③③口 |④---|
12
②③⑤④ |①---|
口①①口 |②-③-|
口口口口 |--④-|
口口口口 |⑤---|
13
口口口口 |①---|
④①①③ |②---|
⑥②②⑤ |③-④-|
口口口口 |⑤-⑥-|
14
②③⑤④ |①---|
口①①口 |②-③-|
口口口口 |--④-|
口口口口 |⑤---|
15
口口口口 |①---|
④①①④ |②---|
口②②口 |③---|
口③③口 |④---|
16
②③⑤④ |①---|
口①①口 |②-③-|
口口口口 |--④-|
口口口口 |⑤---|
17
口口口口 |①---②-|
①口口⑥ |--③---|
⑤口口② |④---⑤-|
③口口④ |--⑥---|
18
②③⑤④ |①---|
口①①口 |②-③-|
口口口口 |--④-|
口口口口 |⑤---|
19
口口口口 |①---|
口①①口 |②---|
口②②口 |③---|
⑤③③④ |④-⑤-|
20
②③⑤④ |①---|
口①①口 |②-③-|
口口口口 |--④-|
口口口口 |⑤---|
21
口口口口 |①---|
④①①③ |②---|
⑥②②⑤ |③-④-|
口口口口 |⑤-⑥-|
22
②③⑤④ |①---|
口①①口 |②-③-|
口口口口 |--④-|
口口口口 |⑤---|
23
口口口口 |①---|
口①①口 |②---|
口②②口 |③---|
⑤③③④ |④-⑤-|
24
口口口口 |①---|
①①①① |----|
②②②② |②---|
口口口口 |----|
25
②②①① |①---|
口口口口 |②---|
口口口口 |③---|
④④③③ |④---|
26
②③⑤④ |①---|
口①①口 |②-③-|
口口口口 |--④-|
口口口口 |⑤---|
27
口口口口 |①---|
口①①口 |②---|
口②②口 |③---|
⑤③③④ |④-⑤-|
28
②③⑤④ |①---|
口①①口 |②-③-|
口口口口 |--④-|
口口口口 |⑤---|
29
口口口口 |①---|
④①①③ |②---|
⑥②②⑤ |③-④-|
口口口口 |⑤-⑥-|
30
②③⑤④ |①---|
口①①口 |②-③-|
口口口口 |--④-|
口口口口 |⑤---|
31
口口口口 |①---|
口①①口 |②---|
口②②口 |③---|
⑤③③④ |④-⑤-|
32
口口口口 |①---|
①①①① |----|
②②②② |②---|
口口口口 |----|
33
④③②① |①---|
④③②① |②---|
口口口口 |③---|
口口口口 |④---|
34
口口口口 |①-②-|
口口④③ |--③-|
⑤⑥②① |④---|
口口口口 |⑤-⑥-|
35
口口口口 |--①-|
①②口口 |②---|
口口口口 |③---|
口③③口 |----|
36
③③①① |①---|
口口口口 |--②-|
口口口口 |----|
口口②② |③---|
37
口口口口 |--①-|
口③②口 |----|
口②③口 |②---|
①①口口 |③---|
38
①口口① |①---|
口口口口 |--②-|
口③③口 |----|
②口口② |③---|
39
口口口口 |①---|
口口口口 |②---|
口口口口 |③---|
④②①③ |④---|
40
口口口口 |①-②-|
口口④③ |--③-|
⑤⑥②① |④---|
口口口口 |⑤-⑥-|
41
口口口口 |--①-|
①②口口 |②---|
口口口口 |③---|
口③③口 |----|
42
③③①① |①---|
口口口口 |--②-|
口口口口 |----|
口口②② |③---|
43
口口口口 |--①-|
口③②口 |----|
口②③口 |②---|
①①口口 |③---|
44
①口口① |①---|
口口口口 |--②-|
口③③口 |----|
②口口② |③---|
45
口口口口 |①---|
口口口口 |②---|
口口口口 |③---|
④②①③ |④---|
46
口口口口 |①-②-|
口口④③ |--③-|
⑤⑥②① |④---|
口口口口 |⑤-⑥-|
47
口口口口 |--①-|
①②口⑤ |②---|
口口④③ |③-④-|
口口口口 |--⑤-|
48
口口口口 |①---|
④⑤①口 |②-③-|
②③口口 |--④-|
口口口口 |⑤---|
49
口口口口 |①---|
口口口口 |----|
口口口口 |----|
口①①口 |----|
50
口口口口 |①---|
口口口口 |----|
口①①口 |----|
口口口口 |----|
51
口口口口 |①---|
①口口口 |----|
口口口口 |----|
口口口口 |----|
52
口口口口 |①---|
口口口① |----|
口口口口 |----|
口口口口 |----|
53
口口口口 |①---|
口口口口 |----|
①口口口 |----|
口口口口 |----|
54
口口口口 |----|
口口口口 |----|
口口口口 |----|
口口口口 |----|
55
口口口口 |①---|
口口口① |----|
口口口口 |----|
口口口口 |----|
56
口口口口 |①---|
①口口口 |----|
口口口口 |----|
口口口口 |----|
57
口口口口 |①---|
口口口口 |----|
口口口① |----|
口口口口 |----|
58
口口口口 |----|
口口口口 |----|
口口口口 |----|
口口口口 |----|
59
口口口 |①---|
口口口 |----|
口口口口 |----|
口口口口 |----|
60
口口口口 |①---|
口口 |----|
口口口
口口口口

口口口口
口口
口口 |②---|
口口口口 |----|
61
口口口口 |①---|
口口 |----|

口口口口

口口口口
口口口
口口 |②---|
口口口口 |----|
62
口口口口 |①---|
口口口 |----|
口口
口口口口

口口口口
口口
口口口 |②---|
口口口口 |----|
63
口口口口 |①---|
口 |----|
口口
口口口口

口口口口
口口
口口口 |②---|
口口口口 |----|
64
口口口 |①---|
口口 |----|
口口口
口口口口

口口口
口口口
口口 |②---|
口口口口 |----|
65
口口口口 |----|
口口口口 |----|
口口口口 |----|
口口口口 |----|
66
口口口口 |①---|
②口口② |----|
口口口 |----|
口口口口 |②---|
67
口口①口 |①--②|
口②口⑤ |--③-|
口口③⑤ |-④--|
口④口口 |⑤---|
68
口①口口 |①--②|
⑤口②口 |--③-|
⑤③口口 |-④--|
口口④口 |⑤---|
69
④③②① |①--②|
⑤⑥口口 |--③-|
口口口口 |-④--|
口口口口 |⑤--⑥|
70
口口口口 |--①-|
口口①② |-②--|
口③③口 |③---|
口口口口 |----|
71
口口①口 |①--②|
口②口⑤ |--③-|
口口③⑤ |-④--|
口④口口 |⑤---|
72
口①口口 |①--②|
⑤口②口 |--③-|
⑤③口口 |-④--|
口口④口 |⑤---|
73
④③②① |①--②|
⑤口口口 |--③-|
口口口口 |-④--|
口口口口 |⑤---|
74
口口口口 |①-②-|
口口口口 |③-④-|
口②①⑦ |⑤-⑥-|
⑥④③⑤ |⑦---|
75
口口①口 |①--②|
口②口⑤ |--③-|
口口③⑤ |-④--|
口④口口 |⑤---|
76
口①口口 |①--②|
⑤口②口 |--③-|
⑤③口口 |-④--|
口口④口 |⑤---|
77
④③②① |①--②|
⑤⑥口口 |--③-|
口口口口 |-④--|
口口口口 |⑤--⑥|
78
口口口口 |--①-|
口口①② |-②--|
口③③口 |③---|
口口口口 |----|
79
口口①口 |①--②|
口②口⑤ |--③-|
口口③⑤ |-④--|
口④口口 |⑤---|
80
口①①口 |①--②|
口②②口 |--③-|
⑤③③⑤ |-④--|
口④④口 |⑤---|
81
口①②口 |①-②-|
口③④口 |③-④-|
口⑤⑥口 |⑤-⑥-|
口⑦⑧口 |⑦-⑧-|
82
口口口口 |①-②-|
⑤口口口 |③-④-|
③口口④ |⑤---|
①口口② |----|
83
②③⑤④ |①---|
口①①口 |②-③-|
口口口口 |--④-|
口口口口 |⑤---|
84
口口口口 |①---|
口①①口 |②---|
口②②口 |③---|
⑤③③④ |④-⑤-|
85
②③⑤④ |①---|
口①①口 |②-③-|
口口口口 |--④-|
口口口口 |⑤---|
86
口口口口 |①---|
④①①③ |②---|
⑥②②⑤ |③-④-|
口口口口 |⑤-⑥-|
87
②③⑤④ |①---|
口①①口 |②-③-|
口口口口 |--④-|
口口口口 |⑤---|
88
口口口口 |①---|
口①①口 |②---|
口②②口 |③---|
⑤③③④ |④-⑤-|
89
口口口口 |①---|
口①口① |----|
②口②口 |②---|
口口口口 |----|
90
口口口口 |①---②-|
①口口⑥ |--③---|
⑤口口② |④---⑤-|
③口口④ |--⑥---|
91
②③⑤④ |①---|
口①①口 |②-③-|
口口口口 |--④-|
口口口口 |⑤---|
92
口口口口 |①---|
口①①口 |②---|
口②②口 |③---|
⑤③③④ |④-⑤-|
93
②③⑤④ |①---|
口①①口 |②-③-|
口口口口 |--④-|
口口口口 |⑤---|
94
口口口口 |①---|
④①①③ |②---|
⑥②②⑤ |③-④-|
口口口口 |⑤-⑥-|
95
②③⑤④ |①---|
口①①口 |②-③-|
口口口口 |--④-|
口口口口 |⑤---|
96
口口口口 |①---|
口①①口 |②---|
口②②口 |③---|
⑤③③④ |④-⑤-|
97
口口口口 |①---|
①①①① |----|
②②②② |②---|
口口口口 |----|
98
④③②① |①---|
④③②① |②---|
口口口口 |③---|
口口口口 |④---|
99
口口口口 |----|
口口①① |①---|
①①口口 |----|
口口口口 |----|

不確定度: 0

最終更新:2016年07月27日 15:42