Glitter Flatter Scatter
Project B-

ADVANCED

Level: 9
BPM: 197
Notes: 708

1
口口口口 |----|
口口口口 |----|
口口口口 |----|
口口口口 |----|
2
①口口① |①---|
口口口口 |②-③-|
②口口⑤ |--④-|
③口口④ |⑤---|
3
①口口口 |①---|
口⑤④② |②---|
口⑦⑥口 |③---|
③口口口 |④⑤⑥⑦|
4
口口口① |①---|
口口口口 |②-③-|
②口口⑤ |--④-|
③口口④ |⑤---|
5
①⑩⑨口 |①---|
口⑧⑦② |②---|
口⑥⑤口 |③④⑤⑥|
口④③口 |⑦⑧⑨⑩|
6
①口口① |①---|
口口口口 |②-③-|
②口口⑤ |--④-|
③口口④ |⑤---|
7
①口口口 |①---|
口⑤④② |②---|
口⑦⑥口 |③---|
口③口口 |④⑤⑥⑦|
8
口口口① |①---|
口口口口 |②-③-|
②口口⑤ |--④-|
③口口④ |⑤---|
9
①口口口 |①---|
口口口② |②---|
口口口口
口口口口

⑤口口口
③⑤口口
口口口④ |③--④|
③口口④ |--⑤-|
10
口口①口 |①②③④|
口口②口 |⑤-⑥-|
⑤口③⑧ |--⑦-|
⑥口④⑦ |⑧---|
11
①口口口 |①---|
口⑤④② |②---|
口⑦⑥口 |③---|
③口口口 |④⑤⑥⑦|
12
口口口① |①---|
口口口口 |②-③-|
②口口⑤ |--④-|
③口口④ |⑤---|
13
①⑩⑨口 |①---|
口⑧⑦② |②---|
口⑥⑤口 |③④⑤⑥|
口④③口 |⑦⑧⑨⑩|
14
①口口① |①---|
口口口口 |②-③-|
②口口⑤ |--④-|
③口口④ |⑤---|
15
①口口口 |①---|
口⑤④② |②---|
口⑦⑥口 |③---|
口③口口 |④⑤⑥⑦|
16
口口口① |①---|
口口口口 |②-③-|
②口口⑤ |--④-|
③口口④ |⑤---|
17
①③⑥口 |①---②-|
⑤口④② |--③---|
③①口⑥ |④---⑤-|
口⑤②④ |--⑥---|
18
①口口① |①---|
口口口口 |②-③-|
②①①⑤ |--④-|
③口口④ |⑤---|
19
①口口口 |①---|
口⑤④② |②---|
口⑦⑥口 |③---|
③口口口 |④⑤⑥⑦|
20
口口口① |①---|
口口口口 |②-③-|
②口口⑤ |--④-|
③口口④ |⑤---|
21
①⑩⑨口 |①---|
口⑧⑦② |②---|
口⑥⑤口 |③④⑤⑥|
口④③口 |⑦⑧⑨⑩|
22
①口口① |①---|
口口口口 |②-③-|
②口口⑤ |--④-|
③口口④ |⑤---|
23
①口口口 |①---|
口⑤④② |②---|
口⑦⑥口 |③---|
口③口口 |④⑤⑥⑦|
24
②②①① |①---|
口口口口 |----|
口口口口 |②---|
口口口口 |----|
25
④口口③ |①---|
口②①口 |②---|
口①②口 |③---|
③口口④ |④---|
26
口①①口 |①---|
口口口口 |②-③-|
②口口⑤ |--④-|
③口口④ |⑤---|
27
①口口口 |①---|
口⑤④② |②---|
口⑦⑥口 |③---|
③口口口 |④⑤⑥⑦|
28
口口口① |①---|
口口口口 |②-③-|
②口口⑤ |--④-|
③口口④ |⑤---|
29
①⑩⑨口 |①---|
口⑧⑦② |②---|
口⑥⑤口 |③④⑤⑥|
口④③口 |⑦⑧⑨⑩|
30
①口口① |①---|
口口口口 |②-③-|
②口口⑤ |--④-|
③口口④ |⑤---|
31
①口口口 |①---|
口⑤④② |②---|
口⑦⑥口 |③---|
口③口口 |④⑤⑥⑦|
32
②②①① |①---|
口口口口 |----|
口口口口 |②---|
口口口口 |----|
33
⑯⑮⑭⑬ |①②③④|
⑫⑪⑩⑨ |⑤⑥⑦⑧|
⑧⑦⑥⑤ |⑨⑩⑪⑫|
④③②① |⑬⑭⑮⑯|
34
口口口口 |①-②-|
口⑥口⑤ |--③-|
③口④口 |④---|
口②口① |⑤-⑥-|
35
①⑥②⑦ |--①-|
⑧口⑤口 |②---|
口④口⑨ |③④⑤⑥|
⑩口③口 |⑦⑧⑨⑩|
36
口③③口 |①---|
③①口口 |--②-|
口口①口 |----|
口②②② |③---|
37
③口口② |--①-|
口口口① |----|
口①口① |②---|
②口口③ |③---|
38
口口口② |①---|
①②口口 |--②-|
口①口② |----|
③口①③ |③---|
39
①⑩口口 |①-②③|
④⑪③② |④-⑤⑥|
⑦⑫⑥⑤ |⑦-⑧⑨|
口⑬⑨⑧ |⑩⑪⑫⑬|
40
③口⑤① |①-②-|
口口口口 |--③-|
口口口口 |④---|
②⑥口④ |⑤-⑥-|
41
④①口⑨ |--①-|
⑧口口⑤ |②---|
⑩口口⑦ |③④⑤⑥|
⑥口②③ |⑦⑧⑨⑩|
42
口③③口 |①---|
③①口口 |--②-|
口口①口 |----|
口②②② |③---|
43
③口口② |--①-|
口口口① |----|
口①口① |②---|
②口口③ |③---|
44
口口口② |①---|
①②口口 |--②-|
口①口② |----|
③口①③ |③---|
45
①⑩口口 |①-②③|
④⑪③② |④-⑤⑥|
⑦⑫⑥⑤ |⑦-⑧⑨|
口⑬⑨⑧ |⑩⑪⑫⑬|
46
③口⑤① |①-②-|
口口口口 |--③-|
口口口口 |④---|
②⑥口④ |⑤-⑥-|
47
⑤①口③ |--①-|
口口口口 |②---|
口口口口 |③-④-|
④口②口 |--⑤-|
48
口④②口 |①---|
口口口口 |②-③-|
口口口口 |--④-|
口③⑤① |⑤---|
49
口口口口 |①---|
①①①① |----|
口口口口 |----|
口口口口 |----|
50
①①①① |①---|
口口口口 |----|
口口口口 |----|
②口口② |②---|
51
口口⑤口 |①--②|
口口口⑤ |--③-|
口②①口 |-④--|
口④③口 |⑤---|
52
口口口口 |①--②|
①口②口 |--③-|
⑤③口④ |-④--|
口⑤口口 |⑤---|
53
口③口口 |①--②|
⑤口口② |--③-|
口口④口 |-④--|
①口⑥口 |⑤--⑥|
54
③口口② |--①-|
口①④口 |-②--|
口口口口 |③--④|
⑤口口口 |--⑤-|
55
口口⑤口 |①--②|
口口口⑤ |--③-|
口②①口 |-④--|
口④③口 |⑤---|
56
口口口口 |①--②|
①口②口 |--③-|
⑤③口④ |-④--|
口⑤口口 |⑤---|
57
③口口口 |①--②|
口①④口 |--③-|
口口⑥口 |-④--|
⑤口口② |⑤--⑥|
58
口③口口 |--①-|
①口口口 |-②--|
口⑤口② |③--④|
口口④口 |--⑤-|
59
|①---|
口口口口 |----|
口口口口 |----|
口口口口 |----|
60
口口 |①---|
口口口 |----|
口口口口
口口口口

口口口
口口
口口 |②---|
口口口口 |----|
61
口口口口 |①---|
口 |----|
口口
口口口口

口口口口
口口口口
口口 |②---|
口口口 |----|
62
口口口 |①---|
口口口 |----|
口口口口
口口口

口口
口口口
口口口口 |②---|
口口口口 |----|
63
口口口 |①---|
口口 |----|
口口
口口口口

口口口口

口口口 |②---|
口口口口 |----|
64
口口口口 |①---|
口口口 |----|
口口
口口

口口
口口
口口口 |②---|
口 |----|
65
口口口口 |----|
口口口口 |----|
口口口口 |----|
口口口口 |----|
66
口口口 |①---|
口口口口 |----|
口口口口 |----|
②口口② |②---|
67
①①⑦⑥ |①-②③|
口④口③ |-④⑤-|
口⑤口② |⑥⑦--|
⑧⑨⑩⑪ |⑧⑨⑩⑪|
68
⑧⑨⑩⑪ |①-②③|
①⑤⑦⑥ |-④⑤-|
④口②③ |⑥⑦--|
口口口口 |⑧⑨⑩⑪|
69
口⑪口口 |①-②③|
⑨⑤⑩口 |-④⑤-|
⑦③④⑧ |⑥⑦-⑧|
①口②⑥ |⑨-⑩⑪|
70
②口⑤⑤ |-①②-|
口口口① |③④--|
口④口口 |⑤---|
⑤⑤③口 |----|
71
②③口口 |①-②③|
口⑦⑤① |-④⑤-|
⑥口④① |⑥⑦--|
⑪⑩⑨⑧ |⑧⑨⑩⑪|
72
⑪⑩⑨⑧ |①-②③|
②⑦⑤④ |-④⑤-|
⑥③口① |⑥⑦--|
口口口口 |⑧⑨⑩⑪|
73
口口⑪口 |①-②③|
口⑩⑤⑨ |-④⑤-|
⑧④③⑦ |⑥⑦-⑧|
⑥②口① |⑨-⑩⑪|
74
⑤⑤口② |-①②-|
①口口口 |③④--|
口口④口 |⑤---|
口③⑤⑤ |----|
75
口⑤⑥② |①-②③|
①口③口 |-④⑤-|
①④口⑦ |⑥⑦--|
⑧⑨⑩⑪ |⑧⑨⑩⑪|
76
⑧⑨⑩⑪ |①-②③|
④⑤⑦② |-④⑤-|
①口③⑥ |⑥⑦--|
口口口口 |⑧⑨⑩⑪|
77
口⑪口口 |①-②③|
⑨⑤⑩口 |-④⑤-|
⑦③④⑧ |⑥⑦-⑧|
①口②⑥ |⑨-⑩⑪|
78
②口⑤⑤ |-①②-|
口口口① |③④--|
口④口口 |⑤---|
⑤⑤③口 |----|
79
②口口口 |①-②③|
口⑥⑤① |-④⑤-|
⑦③④① |⑥⑦--|
⑪⑩⑨⑧ |⑧⑨⑩⑪|
80
④②③① |①--②|
⑧⑦⑥⑤ |--③-|
④②③① |-④--|
口口口口 |⑤⑥⑦⑧|
81
口 |①---|
口 |----|
口 |----|
口 |----|
82
口口口口 |----|
①口口① |----|
口口口口 |①---|
口 |----|
83
①①①① |①---|
口口口口 |②-③-|
②口口⑤ |--④-|
③口口④ |⑤---|
84
①口口口 |①---|
口⑤④② |②---|
口⑦⑥口 |③---|
③口口口 |④⑤⑥⑦|
85
口口口① |①---|
口口口口 |②-③-|
②口口⑤ |--④-|
③口口④ |⑤---|
86
①⑩⑨口 |①---|
口⑧⑦② |②---|
口⑥⑤口 |③④⑤⑥|
口④③口 |⑦⑧⑨⑩|
87
①口口① |①---|
口口口口 |②-③-|
②口口⑤ |--④-|
③口口④ |⑤---|
88
①口口口 |①---|
口⑤④② |②---|
口⑦⑥口 |③---|
口③口口 |④⑤⑥⑦|
89
②②①① |①---|
口口口口 |----|
口口口口 |②---|
口口口口 |----|
90
⑥口①③ |①---②-|
②④⑤口 |--③---|
口⑥③① |④---⑤-|
④②口⑤ |--⑥---|
91
口①①口 |①---|
口口口口 |②-③-|
②口口⑤ |--④-|
③口口④ |⑤---|
92
①口口口 |①---|
口⑤④② |②---|
口⑦⑥口 |③---|
③口口口 |④⑤⑥⑦|
93
口口口① |①---|
口口口口 |②-③-|
②口口⑤ |--④-|
③口口④ |⑤---|
94
①口口口 |①---|
口③③② |②---|
口④④口 |③--④|
口⑤⑤口 |--⑤-|
95
①口口① |①---|
口口口口 |②-③-|
②口口⑤ |--④-|
③口口④ |⑤---|
96
①口口口 |①---|
口⑤④② |②---|
口⑦⑥口 |③---|
口③口口 |④⑤⑥⑦|
97
②②①① |①---|
口口口口 |----|
口口口口 |②---|
口口口口 |----|
98
⑯⑮⑭⑬ |①②③④|
⑫⑪⑩⑨ |⑤⑥⑦⑧|
⑧⑦⑥⑤ |⑨⑩⑪⑫|
④③②① |⑬⑭⑮⑯|
99
口口口口 |----|
口口口口 |①---|
口①①口 |----|
①口口① |----|

不確定度: 0

最終更新:2016年07月27日 15:42