龍と少女とデコヒーレンス
黒猫ダンジョン

BASIC

Level: 4
BPM: 165
Notes: 292

1
口口口口 |----|
口口口口 |----|
口口口口 |----|
口口口口 |----|
2
口口口口 |①---|
①②③④ |②---|
口口口口 |③---|
口口口口 |④---|
3
口口口口 |①---|
口口口口 |②---|
①②③④ |③---|
口口口口 |④---|
4
口口口口 |①---|
①②③④ |②---|
口口口口 |③---|
口口口口 |④---|
5
口口口口 |①---|
口口口口 |②---|
①②③④ |③---|
口口口口 |④---|
6
①口口② |①---|
口口口口 |②---|
口口口口 |③---|
③口口④ |④---|
7
①口口② |①---|
口口口口 |②---|
口口口口 |③---|
③口口④ |④---|
8
①口口② |①---|
口口口口 |②---|
口口口口 |③---|
③口口④ |④---|
9
①口口② |①---|
口口口口 |②---|
口口口口 |③---|
③口口④ |④---|
10
口口口口 |①---|
口口口口 |----|
口①①口 |----|
口口口口 |----|
11
口口口口 |①---|
口①口口 |----|
口口口口 |----|
口口口口 |----|
12
口口口口 |①---|
口口①口 |----|
口口口口 |----|
口口口口 |----|
13
口口口口 |①---|
口①口口 |----|
口口口口 |----|
口口口口 |----|
14
口口口口 |①---|
口口口口 |----|
口①①口 |----|
口口口口 |----|
15
口口口口 |①---|
口口口口 |----|
口①①口 |----|
口口口口 |----|
16
口口口口 |①---|
口口口口 |②---|
口②④口 |③---|
①①③③ |④---|
17
⑤①②⑤ |①-②-|
口③④口 |③-④-|
口口口口 |⑤---|
⑥口口⑥ |⑥---|
18
②②④④ |①---|
口口口口 |②---|
①口口③ |③---|
口口口口 |④---|
19
②②④④ |①---|
口口口口 |②---|
①口口③ |③---|
口口口口 |④---|
20
②②④④ |①---|
口口口口 |②---|
①口口③ |③---|
口口口口 |④---|
21
②②④④ |①---|
口口口口 |②---|
①口口③ |③---|
口口口口 |④---|
22
口口口口 |①---|
①口口③ |②---|
口口口口 |③---|
②②④④ |④---|
23
口口口口 |①---|
①口口③ |②---|
口口口口 |③---|
②②④④ |④---|
24
口口口口 |①---|
①口口③ |②---|
口口口口 |③---|
②②④④ |④---|
25
口口口口 |①---|
①口口③ |②---|
口口口口 |③---|
②②④④ |④---|
26
口口②④ |①---|
①③口口 |②---|
口口②④ |③---|
口口口口 |④---|
27
④②口口 |①---|
口口③① |②---|
④②口口 |③---|
口口口口 |④---|
28
口口②④ |①---|
①③口口 |②---|
口口②④ |③---|
口口口口 |④---|
29
④②口口 |①---|
口口③① |②---|
④②口口 |③---|
口口口口 |④---|
30
口口口口 |①---|
④②口口 |②---|
口口③① |③---|
④②口口 |④---|
31
口口口口 |①---|
口口②④ |②---|
①③口口 |③---|
口口②④ |④---|
32
口口口口 |①---|
口口口口 |②---|
口④③口 |③---|
口②①口 |④---|
33
口④③口 |①---|
口②①口 |②---|
口口口口 |③---|
口口口口 |④---|
34
口口口 |①---|
口口口 |----|
口口口 |----|
口口口 |----|
35
口口口口 |----|
口口口口 |----|
口口口口 |----|
口口口口 |----|
36
口口 |①---|
口口口 |----|
口口口 |----|
口口口 |----|
37
口口口口 |----|
口口口口 |----|
口口口口 |----|
口口口口 |----|
38
口口 |①---|
口口口 |----|
口口口 |----|
口口口 |----|
39
口口口口 |----|
口口口口 |----|
口口口口 |----|
口口口口 |----|
40
口口 |①---|
口口口 |----|
口口口 |----|
口口口 |----|
41
口口口口 |----|
口口口口 |----|
口口口口 |----|
口口口口 |----|
42
②口 |①---|
口③口 |②---|
口口口 |----|
口口口 |③---|
43
口口口口 |----|
口口口口 |①---|
口①口口 |----|
口②口口 |②---|
44
口② |①---|
口③口 |②---|
口口口 |----|
口口口 |③---|
45
口口口口 |----|
口口口口 |①---|
口口①口 |----|
口口②口 |②---|
46
②口 |①---|
口③口 |②---|
口口口 |----|
口口口 |③---|
47
口口口口 |----|
口口口口 |①---|
口①口口 |----|
口②口口 |②---|
48
口② |①---|
口③口 |②---|
口口口 |----|
口口口 |③---|
49
口口口口 |----|
口口口口 |①---|
口口①口 |----|
口口②口 |②---|
50
口口口 |①---|
口口口口 |----|
口口口① |----|
口口口口 |----|
51
口口口口 |----|
口口口口 |----|
口口口口 |----|
口口口口 |----|
52
口口口口 |①---|
口口口口 |----|
口口①口 |----|
口口口口 |----|
53
口口口口 |----|
口口口口 |----|
口口口口 |----|
口口口口 |----|
54
口口口口 |①---|
口口口口 |----|
口①口口 |----|
口口口口 |----|
55
口口口口 |----|
口口口口 |----|
口口口口 |----|
口口口口 |----|
56
口口口口 |①---|
口口口口 |----|
①口口口 |----|
口口口口 |----|
57
口口口口 |----|
口口口口 |----|
口口口口 |----|
口口口口 |----|
58
口口口口 |①---|
①②口口 |----|
①口口口 |②---|
口口口口 |----|
59
口口口口 |①---|
口口①② |----|
口口口口 |②---|
口口口口 |----|
60
口口口口 |①---|
①口口口 |----|
①②口口 |②---|
口口口口 |----|
61
口口口口 |①---|
口口口口 |----|
口口①② |②---|
口口口口 |----|
62
口口口口 |①---|
①②口口 |----|
①口口口 |②---|
口口口口 |----|
63
口口口口 |①---|
口口①② |----|
口口口口 |②---|
口口口口 |----|
64
口口口口 |①---|
口口④口 |②---|
口③②口 |③---|
口①①口 |④---|
65
口③②④ |①---|
口①口口 |②---|
口口口口 |③---|
口口口口 |④---|
66
口口口口 |①---|
②口口口 |②---|
口①①口
口口口口

口口口口
口口③口
口④口口 |③---|
口口口口 |④---|
67
口④③② |①---|
口口口口 |②---|
口口口口 |③---|
口①①口 |④---|
68
口口口口 |①---|
口口口② |②---|
口①①口
口口口口

口口口口
口③口口
口口④口 |③---|
口口口口 |④---|
69
②③④口 |①---|
口口口口 |②---|
口口口口 |③---|
口①①口 |④---|
70
口口口口 |①---|
②口口口 |②---|
口①①口
口口口口

口口口口
口口③口
口④口口 |③---|
口口口口 |④---|
71
口④③② |①---|
口口口口 |②---|
口口口口 |③---|
口①①口 |④---|
72
口口口口 |①---|
口口口② |②---|
口①①口
口口口口

口口口口
口③口口
口口④口 |③---|
口口口口 |④---|
73
口口口④ |①---|
③口口口 |②---|
口口口② |③---|
①口口口 |④---|
74
口口口口 |①---|
②口口④ |②---|
口①①口 |③---|
③口口口 |④---|
75
④口口口 |①---|
口③口口 |②---|
口口②口 |③---|
口口口① |④---|
76
口④③② |①---|
口口口口 |②---|
口①①口 |③---|
口口口口 |④---|
77
口口口口 |①---|
④口②口 |②---|
口③口① |③---|
口口口口 |④---|
78
口口口口 |①---|
③口口④ |②---|
口口口口 |③---|
②①①口 |④---|
79
口口口口 |①---|
口③④口 |②---|
口②口口 |③---|
口口口① |④---|
80
⑥口口⑦ |①---|
④口口⑤ |②-③-|
②口口③ |④-⑤-|
口①①口 |⑥-⑦-|
81
口①②口 |①-②-|
口③④口 |③-④-|
口⑤⑥口 |⑤-⑥-|
口⑦⑧口 |⑦-⑧-|
82
口口口口 |①---|
口口口口 |----|
①口口① |----|
口口口口 |----|
83
口口口口 |----|
口口口口 |----|
口口口口 |----|
口口口口 |----|
84
口口口口 |①---|
口口①口 |----|
口口口口 |----|
口口口口 |----|

不確定度: 0

最終更新:2016年04月25日 23:17