龍と少女とデコヒーレンス
黒猫ダンジョン

ADVANCED

Level: 8
BPM: 165
Notes: 595

1
口口口口 |----|
口口口口 |----|
口口口口 |----|
口口口口 |----|
2
口口口⑥ |①-②-|
口口口⑤ |③④-⑤|
口④③口 |----|
②口口① |⑥---|
3
⑥口口口 |①-②-|
⑤口口口 |③④-⑤|
口③④口 |----|
①口口② |⑥---|
4
口口口⑥ |①-②-|
口口口⑤ |③④-⑤|
口④③口 |----|
②口口① |⑥---|
5
⑥口口口 |①-②-|
⑤口口口 |③④-⑤|
口③④口 |----|
①口口② |⑥---|
6
⑧⑦⑥⑤ |①-②-|
口④②口 |③-④-|
口③口口 |⑤-⑥-|
①①①① |⑦-⑧-|
7
口口口口 |①-②-|
口④②口 |③-④-|
口③①口 |⑤-⑥-|
⑧⑦⑥⑤ |⑦-⑧-|
8
⑧⑦⑥⑤ |①-②-|
口④②口 |③-④-|
口③①口 |⑤-⑥-|
口口口口 |⑦-⑧-|
9
口口口口 |①-②-|
口④②口 |③-④-|
口③①口 |⑤-⑥-|
⑧⑦⑥⑤ |⑦-⑧-|
10
口口口口 |①---|
①口口① |----|
①口口① |----|
口口口口 |----|
11
口口口口 |①---|
口口①口 |----|
口口口口 |----|
口口口口 |----|
12
口口口口 |①---|
口①口口 |----|
口口口口 |----|
口口口口 |----|
13
口口口口 |①---|
①口口口 |----|
口口口口 |----|
口口口口 |----|
14
口口①① |①---|
口口口口 |----|
口口口口 |----|
口口口口 |----|
15
①①口口 |①---|
口口口口 |----|
口口口口 |----|
口口口口 |----|
16
⑧⑦⑥⑤ |①-②-|
口口口⑤ |③-④-|
口口口① |⑤-⑥-|
④③②① |⑦-⑧-|
17
口口口口 |①-②-|
口口口口 |③-④-|
④④③③
②②①①

口⑧⑦口
口⑥⑤口
口口口口 |⑤⑥⑦⑧|
口口⑨⑨ |⑨---|
18
①口口① |①-②-|
①④③① |③④-⑤|
口口口⑤
口②口口

口口口口
⑧口口口
口⑦⑥口 |-⑥-⑦|
口口口口 |⑧---|
19
口口口① |①-②-|
⑧④③口 |③④-⑤|
口⑦⑥⑤ |-⑥-⑦|
口②口口 |⑧---|
20
口口口① |①-②-|
⑧④③口 |③④-⑤|
口⑦⑥⑤ |-⑥-⑦|
口②口口 |⑧---|
21
口口口① |①-②-|
⑧④③口 |③④-⑤|
口⑦⑥⑤ |-⑥-⑦|
口②口口 |⑧---|
22
①口口口 |①-②-|
口③④⑧ |③④-⑤|
⑤⑥⑦口 |-⑥-⑦|
口口②口 |⑧---|
23
①口口口 |①-②-|
口③④⑧ |③④-⑤|
⑤⑥⑦口 |-⑥-⑦|
口口②口 |⑧---|
24
①口口口 |①-②-|
口③④⑧ |③④-⑤|
⑤⑥⑦口 |-⑥-⑦|
口口②口 |⑧---|
25
①口口口 |①-②-|
口③④⑧ |③④-⑤|
⑤⑥⑦口 |-⑥-⑦|
口口②口 |⑧---|
26
②口⑤① |①-②-|
口⑥口口 |③④-⑤|
口⑧⑦① |-⑥-⑦|
口④③口 |⑧---|
27
②口⑤① |①-②-|
口⑥口口 |③④-⑤|
口⑧⑦① |-⑥-⑦|
口④③口 |⑧---|
28
②口⑤① |①-②-|
口⑥口口 |③④-⑤|
口⑧⑦① |-⑥-⑦|
口④③口 |⑧---|
29
②口⑤① |①-②-|
口⑥口口 |③④-⑤|
口⑧⑦① |-⑥-⑦|
口④③口 |⑧---|
30
①⑤口② |①-②-|
口口⑥口 |③④-⑤|
①⑦⑧口 |-⑥-⑦|
口③④口 |⑧---|
31
①⑤口② |①-②-|
口口⑥口 |③④-⑤|
①⑦⑧口 |-⑥-⑦|
口③④口 |⑧---|
32
⑧⑩⑨⑦ |①②③④|
⑥⑫⑪⑤ |⑤⑥⑦⑧|
④⑭⑬③ |⑨⑩⑪⑫|
②⑯⑮① |⑬⑭⑮⑯|
33
⑧⑩⑨⑦ |①②③④|
⑥⑫⑪⑤ |⑤⑥⑦⑧|
④⑭⑬③ |⑨⑩⑪⑫|
②⑯⑮① |⑬⑭⑮⑯|
34
口口口 |①---|
口口口 |----|
口口口 |----|
口口口 |----|
35
口口口口 |----|
口口口口 |----|
口口口口 |----|
口口口口 |----|
36
口口口 |①---|
口口口 |----|
口口口 |----|
口口 |----|
37
口口口口 |----|
口口口口 |----|
口口口口 |----|
口口口口 |----|
38
口口口 |①---|
口口口 |----|
口口口 |----|
口口 |----|
39
口口口口 |----|
口口口口 |----|
口口口口 |----|
口口口口 |----|
40
口口口 |①---|
口口口 |----|
口口口 |----|
口口 |----|
41
口口口口 |----|
口口口口 |----|
口口口口 |----|
口口口口 |----|
42
口④②口 |①-②-|
口口口口 |③-④-|
口口口口
③①口

⑧口口⑥
口口口口
口口口口 |⑤-⑥-|
⑦口口⑤ |⑦-⑧-|
43
⑧④②⑥ |①-②-|
口口口口 |③-④-|
口口口口 |⑤-⑥-|
⑦③①⑤ |⑦-⑧-|
44
口口口口 |①-②-|
⑦③①⑤ |③-④-|
⑧④②⑥ |⑤-⑥-|
口口口口 |⑦-⑧-|
45
口口口口 |①-②-|
⑦③①⑤ |③-④-|
⑧④②⑥ |⑤-⑥-|
口口口口 |⑦-⑧-|
46
⑧④②⑥ |①-②-|
口口口口 |③-④-|
口口口口 |⑤-⑥-|
⑦③①⑤ |⑦-⑧-|
47
⑧④②⑥ |①-②-|
口口口口 |③-④-|
口口口口 |⑤-⑥-|
⑦③①⑤ |⑦-⑧-|
48
口口口口 |①-②-|
⑦③①⑤ |③-④-|
⑧④②⑥ |⑤-⑥-|
口口口口 |⑦-⑧-|
49
口口口口 |①-②-|
⑦③①⑤ |③-④-|
⑧④②⑥ |⑤-⑥-|
口口口口 |⑦-⑧-|
50
⑩②①⑨ |①-②-③-|
口⑧⑦口 |④-⑤-⑥-|
⑫④③⑪ |⑦-⑧-⑨-|
⑥口口⑤ |⑩-⑪-⑫-|
51
⑩⑥⑤⑨ |①-②-③-|
④口口③ |④-⑤-⑥-|
⑫⑧⑦⑪ |⑦-⑧-⑨-|
口②①口 |⑩-⑪-⑫-|
52
口⑩⑨口 |①-②-③-|
⑥②①⑤ |④-⑤-⑥-|
⑫⑧⑦⑪ |⑦-⑧-⑨-|
口④③口 |⑩-⑪-⑫-|
53
⑥⑫⑪⑤ |①-②-③-|
⑩②①⑨ |④-⑤-⑥-|
口⑧⑦口 |⑦-⑧-⑨-|
口④③口 |⑩-⑪-⑫-|
54
⑥口口⑤ |①-②-③-|
⑫⑧⑦⑪ |④-⑤-⑥-|
②口口① |⑦-⑧-⑨-|
⑩④③⑨ |⑩-⑪-⑫-|
55
⑩②①⑨ |①-②-③-|
口⑫⑪口 |④-⑤-⑥-|
⑧④③⑦ |⑦-⑧-⑨-|
口⑥⑤口 |⑩-⑪-⑫-|
56
口⑧⑦口 |①-②-③-|
⑥口口⑤ |④-⑤-⑥-|
⑩④③⑨ |⑦-⑧-⑨-|
②⑫⑪① |⑩-⑪-⑫-|
57
④⑫⑪③ |①-②-③-|
⑩②①⑨ |④-⑤-⑥-|
口⑥⑤口 |⑦-⑧-⑨-|
⑧口口⑦ |⑩-⑪-⑫-|
58
①口口① |①---|
口①①口 |----|
口口口口 |----|
口口口口 |----|
59
口口口口 |----|
口口口口 |----|
口口口口 |----|
口口口口 |----|
60
口口口① |①---|
口口①口 |----|
口①口口 |----|
①口口口 |----|
61
口口口口 |----|
口口口口 |----|
口口口口 |----|
口口口口 |----|
62
口口口口 |①---|
①口口口 |----|
口①①口 |----|
口口口① |----|
63
口口口口 |----|
口口口口 |----|
口口口口 |----|
口口口口 |----|
64
口口①口 |①---|
口口②① |②---|
①③④口 |③---|
口①口口 |④---|
65
口口口口 |①---|
口①②口 |②---|
口③④口 |③---|
口口口口 |④---|
66
⑤④③② |①---|
⑨⑧⑦⑥ |②③④⑤|
⑬⑫⑪⑩ |⑥⑦⑧⑨|
①口口① |⑩⑪⑫⑬|
67
口口口口 |①---|
口口口口 |----|
口口口口 |----|
口口口① |----|
68
口②口口 |①---|
口③口口 |②③④⑤|
口④口口
①⑤口①

⑩口⑥口
⑪口⑦口
⑫口⑧口 |⑥⑦⑧⑨|
⑬口⑨口 |⑩⑪⑫⑬|
69
口口口① |①---|
口口口口 |----|
口口口口 |----|
口口口口 |----|
70
②③④⑤ |①---|
⑥⑦⑧⑨ |②③④⑤|
⑩⑪⑫⑬ |⑥⑦⑧⑨|
①口口① |⑩⑪⑫⑬|
71
口口口口 |①---|
口口口口 |----|
口口口口 |----|
①口口口 |----|
72
口口②口 |①---|
口口③口 |②③④⑤|
口口④口
①口⑤①

口⑥口⑩
口⑦口⑪
口⑧口⑫ |⑥⑦⑧⑨|
口⑨口⑬ |⑩⑪⑫⑬|
73
①口②口 |①---|
口口口口 |②---|
③口④口 |③---|
口口口口 |④---|
74
口⑦②口 |①-②③|
口③口⑥ |④⑤⑥⑦|
⑤口口口
①口④①

⑬口口⑩
⑨口⑭口
口⑪⑧⑫ |⑧⑨⑩⑪|
⑮口口口 |⑫⑬⑭⑮|
75
④口口口 |①---|
口口口③ |②---|
②口口口 |③---|
口口口① |④---|
76
口口口④ |①-②③|
③⑤口口 |④⑤⑥⑦|
口⑦②口
①口⑥①

⑨⑬⑭口
口口⑩⑧
⑪口口口 |⑧⑨⑩⑪|
⑮口口⑫ |⑫⑬⑭⑮|
77
口口口口 |①---|
口④③口 |②---|
口②①口 |③---|
口口口口 |④---|
78
⑦③口口 |①-②③|
口口⑥口 |④⑤⑥⑦|
⑤口口②
①口④①

口口⑫口
口⑪口⑩
口⑬⑧口 |⑧⑨⑩⑪|
⑮⑨口⑭ |⑫⑬⑭⑮|
79
口口口口 |①---|
④口口③ |②---|
②口口① |③---|
口口口口 |④---|
80
⑦口口④ |①-②③|
口③⑥口 |④⑤⑥⑦|
⑤口口口
①口②①

口⑪⑭口
口口口⑩
口⑬口⑧ |⑧⑨⑩⑪|
⑮⑨口⑫ |⑫⑬⑭⑮|
81
⑧口口⑤ |①②③④|
②④口口 |⑤⑥⑦⑧|
⑥口①⑦
口口③口

口口⑬口
⑭口⑨口
口⑫⑮口 |⑨⑩⑪⑫|
⑯⑩口⑪ |⑬⑭⑮⑯|
82
口口口① |①---|
口口口口 |----|
口口口口 |----|
口口口口 |----|
83
口口口口 |----|
口口口口 |----|
口口口口 |----|
口口口口 |----|
84
①口口口 |①---|
口口口口 |----|
口口口口 |----|
口口口口 |----|

不確定度: 0

最終更新:2016年04月25日 23:17