Prophet Vibe
Sota Fujimori feat.Calin

ADVANCED

Level: 7
BPM: 154
Notes: 506

1
口口口口 |----|
口口口口 |----|
口口口口 |----|
口口口口 |----|
2
③④口口 |①---|
②口口② |②---|
①口口① |--③④|
口口⑤口 |⑤---|
3
口口口口 |①②-③|
③口⑥口 |----|
④⑤②① |--④⑤|
口口口口 |⑥---|
4
②口口② |①---|
③④口口 |②---|
⑥口⑤⑥ |--③④|
①口口① |⑤-⑥-|
5
①口④① |---①|
②③口口 |----|
口口口口 |--②③|
口口口口 |④---|
6
口⑦⑦口 |--①②|
口⑤④② |③④⑤⑥|
①③⑥口 |⑦---|
口⑧⑧口 |--⑧-|
7
④口口⑤ |----|
①②口口 |--①②|
口口③口 |③-④-|
⑥口口口 |⑤-⑥-|
8
口口口口 |①-②-|
②口口② |----|
③④④③ |③---|
口口口① |--④-|
9
口口③口 |----|
①②口口 |--①②|
口口口口 |③---|
口口口口 |----|
10
口⑦⑦口 |--①②|
口⑤④② |③④⑤⑥|
①③⑥口 |⑦---|
口⑧⑧口 |--⑧-|
11
②①①③ |----|
口口口口 |--①-|
口口口口 |②-③-|
④口口⑤ |④-⑤-|
12
口口口口 |①-②-|
②口口② |----|
口①①口
口口口口

口口口口
口口口口
③④④③ |③---|
口口口口 |--④-|
13
口②②口 |-①--|
①口口① |--②-|
口口⑤口 |--③④|
③④口口 |⑤---|
14
①口口① |①---|
③④口口 |--②-|
②口⑤② |--③-|
口口口口 |④-⑤-|
15
口口口口 |--①-|
③口口④ |--②-|
口口口口 |--③-|
②①①② |④---|
16
②④⑤③ |①---|
口口口口 |②-③-|
口①①口 |--④-|
口口口口 |--⑤-|
17
口口口口 |--①-|
口①②口 |--②-|
③口口④ |③-④-|
⑤口口⑥ |⑤-⑥-|
18
口口口口 |①---|
口②②口 |--②-|
口①①口
口口口口

口口口口
口口口口
口口⑤口 |--③-|
③④口口 |④-⑤-|
19
②口口② |--①-|
①③④① |--②-|
口口口口 |--③-|
口口口口 |④---|
20
口④④口 |①---|
①口口③ |②-③-|
①口②③ |--④-|
口⑤⑤口 |--⑤-|
21
②③④② |--①-|
口⑤⑥口 |--②-|
口①①口 |③-④-|
口口口口 |⑤-⑥-|
22
口口⑤口 |①---|
③④口口 |--②-|
口②②口 |--③-|
①口口① |④-⑤-|
23
②口口② |--①-|
③口口④ |--②-|
③口口④ |--③-|
①口口① |④---|
24
②①①口 |①---|
口口①口 |----|
口①口口 |--②-|
口①口③ |--③-|
25
口口口② |--①-|
③④口口 |--②-|
口口⑤口 |--③-|
①口口口 |④-⑤-|
26
口口口口 |①---|
口口④口 |----|
②③口① |--②-|
口口口口 |③-④-|
27
①口口① |--①-|
口口口口 |--②-|
口③③口 |----|
②口口② |③---|
28
口口口口 |①---|
口①①口 |----|
②口口口 |----|
口口口口 |--②-|
29
口口口口 |--①-|
口口口口 |--②-|
口①口口 |----|
口口②口 |----|
30
①口口① |①---|
口口⑤口 |--②-|
③④口口 |--③-|
②口口② |④-⑤-|
31
②口口口 |--①-|
②口③口 |--②-|
口③口① |----|
口口口① |③---|
32
口口口口 |①---|
口③②① |----|
①②③口 |--②-|
口口口口 |--③-|
33
口口口口 |--①-|
①⑤⑤② |--②-|
②④④① |--③-|
口③③口 |④-⑤-|
34
①口④① |①---|
②③口口 |----|
口口口口 |--②-|
口口口口 |③-④-|
35
口口口口 |--①-|
口口口口 |--②-|
③②②口 |----|
口①①口 |③---|
36
口②口口 |①---|
②口口口 |----|
口口口① |----|
口口口口 |--②-|
37
③口口④ |--①-|
口口口① |--②-|
①⑤⑤② |--③④|
口口②口 |⑤---|
38
⑤口③⑤ |①-②-|
①②口口 |③---|
口口口口 |④---|
④⑥⑥④ |⑤-⑥-|
39
口①①口 |--①-|
口口④口 |--②-|
②③口⑤ |③-④-|
口口口口 |--⑤-|
40
口口③② |①-②-|
口口④① |③-④-|
⑥口口口 |--⑤-|
口⑤⑤口 |--⑥-|
41
②③口口 |①-②-|
①④口口 |③-④-|
口口口口
口口口口

⑥口口口
口口口口
口口口口 |--⑤-|
⑤⑤⑤⑤ |--⑥-|
42
口⑤⑤① |①-②-|
②口口③ |③---|
口口口口 |④---|
⑥④④⑥ |⑤-⑥-|
43
①口口① |--①-|
口③③口 |--②-|
口②②④ |--③-|
口口口口 |--④-|
44
口口③② |①-②-|
口口④① |③-④-|
口口口口
口口口口

⑥口口⑥
口口口口
口口口口 |--⑤-|
口⑤⑤口 |--⑥-|
45
④口口④ |①-②-|
口口口口 |--③-|
口①②口 |----|
③口口③ |④---|
46
⑤口③⑤ |①-②-|
①②口口 |③---|
口口口口 |④---|
④⑥⑥④ |⑤-⑥-|
47
口①①口 |--①-|
口③③口 |--②-|
口②②④ |--③-|
口口口口 |--④-|
48
口口③② |①-②-|
口口④① |③-④-|
⑥口口口 |--⑤-|
口⑤⑤口 |--⑥-|
49
②③口口 |①-②-|
①④口口 |③-④-|
⑥⑤⑤⑦ |--⑤-|
口口口口 |⑥-⑦-|
50
口⑤⑤① |①-②-|
②口口③ |③---|
口口口口 |④---|
⑥④④⑥ |⑤-⑥-|
51
①口口① |--①-|
口③③口 |--②-|
口②②④ |--③-|
口口口口 |--④-|
52
口口③② |①-②-|
口口④① |③-④-|
口口口口
口口口口

⑥口口⑥
口口口口
口口口口 |--⑤-|
口⑤⑤口 |--⑥-|
53
④口口④ |①-②-|
口口口口 |--③-|
口①②口 |----|
③口口③ |④---|
54
③④口口 |①---|
②口口② |②---|
①口口① |--③④|
口口⑤口 |⑤---|
55
口口口口 |①②-③|
③口⑥口 |----|
④⑤②① |--④⑤|
口口口口 |⑥---|
56
②口口② |①---|
③④口口 |②---|
⑥口⑤⑥ |--③④|
①口口① |⑤-⑥-|
57
①口⑦① |--①-|
⑤⑥口口 |②-③-|
口④④口 |④-⑤⑥|
②③③② |⑦---|
58
口⑦⑦口 |--①②|
口⑤④② |③④⑤⑥|
①③⑥口 |⑦---|
口⑧⑧口 |--⑧-|
59
④口口⑤ |----|
①②口口 |--①②|
口口③口 |③-④-|
⑥口口口 |⑤-⑥-|
60
口口口口 |①---|
口口①口 |----|
②③③② |--②-|
口口口① |--③-|
61
口口③口 |----|
①②口口 |--①②|
口口口口 |③---|
口口口口 |----|
62
口⑦⑦口 |--①②|
口⑤④② |③④⑤⑥|
①③⑥口 |⑦---|
口⑧⑧口 |--⑧-|
63
②①①③ |----|
口口口口 |--①-|
口口口口 |②-③-|
④口口⑤ |④-⑤-|
64
口口口口 |①-②-|
②口口② |----|
口①①口
口口口口

口口口口
口口口口
③④④③ |③---|
口口口口 |--④-|
65
口②②口 |-①--|
①口口① |--②-|
口口⑤口 |--③④|
③④口口 |⑤---|
66
①②③④ |①---|
口口口口 |②---|
口口口口 |③---|
口口口口 |④---|
67
口口口口 |①---|
口口口口 |②---|
口口口口 |③---|
④③②① |④---|
68
口口口口 |①---|
①②③④ |②---|
口口口口 |③---|
口口口口 |④---|
69
口口口口 |①---|
口口口口 |②---|
④③②① |③---|
口口口口 |④---|
70
①②③④ |①---|
①口口口 |②---|
口口口口 |③---|
口口口口 |④---|
71
口口口口 |①---|
口口口口 |②---|
口口口口 |③---|
④③②① |④---|
72
口口口口 |①---|
①②③④ |②---|
口口口口 |③---|
口口口口 |④---|
73
口口口口 |①---|
口口口口 |②---|
④③②① |③---|
口口口口 |④---|
74
②口口② |①---|
口③④口 |②--③|
⑤⑥口口 |④---|
①口口① |⑤-⑥-|
75
口口口口 |①---|
口口口口 |----|
口口口口 |----|
口口①口 |----|
76
口④①口 |①---|
②③②③ |②---|
④①④① |③---|
口②③口 |④---|
77
口④口口 |①---|
口③①口 |②---|
口②口口 |③---|
口①口① |④---|
78
口口口口 |①---|
①口口① |----|
①口口① |----|
口口口口 |----|


不确定度: 0

タグ:

+ タグ編集
  • タグ:

このサイトはreCAPTCHAによって保護されており、Googleの プライバシーポリシー利用規約 が適用されます。

最終更新:2012年11月10日 14:24