Diargosの森
Mutsuhiko Izumi

ADVANCED

Level: 6
BPM: 140
Notes: 376

1
口口口口 |----|
口口口口 |----|
口口口口 |----|
口口口口 |----|
2
④⑦口口 |①-②-|
③⑥口口 |③-④-|
②⑤口口 |--⑤-|
|⑥-⑦-|
3
⑤口④口 |①-②-|
口口③口 |③-④-|
口⑥②口 |--⑤-|
口口口 |--⑥-|
4
口口⑦④ |①-②-|
口口⑥③ |③-④-|
口口⑤② |--⑤-|
口 |⑥-⑦-|
5
口④口⑤ |①-②-|
口③口口 |③-④-|
口②⑥口 |--⑤-|
口口口 |--⑥-|
6
①①口口 |①---|
口口口口 |②-③-|
②口④口 |----|
③口口口 |--④-|
7
口口①① |①---|
口口口口 |②-③-|
口④口② |----|
口口口③ |--④-|
8
口①①口 |①---|
口⑥口口 |②-③-|
口⑤②口 |--④-|
口④③口 |⑤-⑥-|
9
④③②① |①---|
口口口口 |②---|
④③②① |③---|
口口口口 |④---|
10
口口口口 |①---|
口 |----|
口 |----|
口 |----|
11
口口 |①---|
|----|
口口口口 |----|
口口口口 |----|
12
口 |①---|
|----|

口口口口

③口口③
④口口④
口 |②---③-|
口口口口 |--④---|
13
口口口口 |①---②-|
口②②口 |--③---|
口③③口 |④---|
①④④① |----|
14
④⑦口口 |①-②-|
③⑥口口 |③-④-|
②⑤口口 |--⑤-|
|⑥-⑦-|
15
口口④⑦ |①-②-|
口口③⑥ |③-④-|
口口②⑤ |--⑤-|
口口口 |⑥-⑦-|
16
口⑥⑤④ |①---②-|
①②③口 |--③---|
⑥⑤④口 |④---⑤-|
口①②③ |--⑥---|
17
口口 |①---②-|
①② |--③---|
③③ |④---|
②①

口口口口
口口口口
口口口口
口口 |--⑤-|
18
口口口口 |①---|
③②口① |②-③-|
口口①口 |----|
口口口口 |----|
19
口口口口 |①---|
口口口口 |②-③-|
①口②③ |----|
口①口口 |----|
20
口口口口 |①---|
口口①⑥ |②-③-|
③②⑤① |--④-|
口口④口 |⑤-⑥-|
21
①①口口 |①---|
②②口口 |②---|
③③口口 |③---|
④④口口 |④---|
22
口①口① |①---|
口口②口 |②-③-|
口口③口 |----|
口口口口 |----|
23
①口①口 |①---|
口②口口 |②-③-|
口③口口 |----|
口口口口 |----|
24
口口口口 |①---|
⑥口口① |②-③-|
⑤③②口 |--④-|
④口口① |⑤-⑥-|
25
口口①① |①---|
口口②② |②---|
口口③③ |③---|
口口④④ |④---|
26
口口口口 |①---|
|----|
|②---|
口口口口 |----|
27
口口 |①---|
口口 |----|
|②---|
口口 |----|
28
口口 |①---|
|----|
口口口口
口口口口


口口口口
口口口口 |②---|
口口口口 |----|
29
口 |①---|
口口 |----|
口口口 |②---|
口口口口 |----|
30
口口 |①---|
|----|
|②---|
口口口 |----|
31
|①---|
|----|
口口 |②---|
口口口口 |----|
32
口 |①---|
口 |----|
口 |----|
口口口口 |----|
33
口口口口 |①---|
口口 |----|

口口

口口口口
②②
口口口口 |②---|
口口口口 |----|
34
|①---|
口口口口 |----|
口口口口
口口口口

口口口
口③②口
口口口口 |--②-|
口口口口 |--③-|
35
口口口 |①---|
口口口 |----|
口口口
口口口口

口②口口
口口口③
④口口 |--②-|
口口口口 |③-④-|
36
口口口口 |①---|
口口口口
口口口口
口口

口口口口
口②口口 |--②-|
④口口口 |----|
口③口 |③-④-|
37
口口口口 |①---|
①口口口 |----|
②③④⑤ |----|
口口口口 |②③④⑤|
38
口口口口 |①---|
|----|
口口口口
口口口口

口口②口
③口
口口口口 |--②-|
口口口口 |--③-|
39
口口口口 |①---|
口口口口

口口口口

口口口口
|--②-|
口口
口口口口

口口口口
口口④
口口口③ |----|
口口口口 |③-④-|
40
|①---|
口口口口
口口口口
口口口口

口口口
|--②-|
口口口口
口口口口

口口③口
④口
口口口口 |----|
口口口口 |③-④-|
41
口口口口 |①---|
口口口口 |----|

口口口口

口②口④
口③口⑤
口口口 |②-③-|
口口口口 |④-⑤-|
42
②③④口 |①-②③|
口⑤口口 |④-⑤-|
口口口①
口口口口

口口口⑥
口口⑦口
口口口⑧ |⑥-⑦-|
口口⑨口 |⑧-⑨-|
43
⑥④③② |①-②③|
口⑦⑤⑩ |④-⑤-|
⑧①口⑨ |⑥-⑦-|
口口口口 |⑧-⑨⑩|
44
口口口① |①---|
③④②口 |----|
口口口口 |②---③-|
②④③口 |--④---|
45
口口口口 |①---|
口口口② |--②③|
①口①③ |④---|
|----|
46
口口口⑥ |①-②③|
口⑤⑦口 |④-⑤-|
②③④⑧ |⑥-⑦-|
口口⑨ |⑧-⑨-|
47
⑤③②① |--①②|
口⑥④口 |③-④-|
⑦口口口 |⑤-⑥-|
口⑧口口 |⑦-⑧-|
48
③①口② |①---②-|
口口口口 |--③---|
口口口口
②口①③

口口④⑥
⑤口口口
口口口⑤ |④---⑤-|
⑥④口口 |--⑥---|
49
口①②口 |①---②-|
口口口③ |--③---|
③口口口
口②①口


口口口口
口口口口 |④---|
|----|
50
口 |①---|
口 |----|



口口口③
口③
④口口 |②-③-|
④口口口 |--④-|
51
口口 |①---|
口 |----|
口 |----|
口口口 |----|
52
口口口口 |①---|
|----|

口口口口

口口口口
口③口
口②口 |----|
口口口口 |②-③-|
53
口 |①---|
口口口口 |----|
口口口口
口口口口

口口

口口口口 |②---|
口口口口 |----|
54
口口口口 |①---|
口口 |----|

口口口口

口③口口
口口②口
口口口 |----|
口口口口 |②-③-|
55
口口口 |①---|
口口口 |----|
口口口
口口口口

口③口
口②口口
口口口口 |----|
口口口口 |②-③-|
56
口口口 |①---|
口口口 |----|
口口口 |----|
口口口口 |----|
57
|①---|
口 |----|

口口口口

口口口口
口口
|②---|
口口 |----|
58
口口口 |①---|
|----|
|②---|
口口口 |----|
59
口口口 |①---|
|----|
口口口口 |----|
口口口口 |----|
60
口口 |①---|
|----|
口口
口口

口口口口
口口口口
|②---|
口口口口 |----|
61
口口口口 |①---|
|----|
口口口口 |----|
口口 |----|
62
口 |①---|
口 |----|
|②---|
口 |----|
63
口口 |①---|
|----|
|②---|
口口口 |----|
64
口口 |①---|
口 |----|
|----|
口口口 |----|
65
口口 |①---|
|----|

口口

口口②
口口口口
口口口口 |②---|
②口口 |----|
66
口口口口 |----|
口口口口 |----|
口口口口 |----|
口口口口 |----|
67
口口口口 |----|
口口口口 |----|
口口口口 |----|
口口口口 |----|
68
口口口口 |①---|
|----|
|----|
|----|
69
口口口口 |----|
口口口口 |----|
口口口口 |----|
口口口口 |----|
70
口口口口 |①---|
口口口口 |----|
口口口口 |----|
|----|

不確定度: 0

最終更新:2016年04月25日 03:51