Sacrifice for Justice
RoughSketch

BASIC

Level: 4
BPM: 190
Notes: 365

1
口口口口 |----|
口口口口 |----|
口口口口 |----|
口口口口 |----|
2
口口口口 |----|
口口口口 |----|
口口口口 |----|
口口口口 |----|
3
口①①口 |①---|
口②②口 |----|
口口口口 |②---|
口口口口 |----|
4
口口口口 |①---|
口口口口 |----|
口①①口 |②---|
口②②口 |----|
5
口口口口 |①---|
口口口口 |----|
②口口② |②---|
①口口① |----|
6
②口口② |①---|
①口口① |----|
口口口口 |②---|
口口口口 |----|
7
口口口口 |①---|
①②③④ |②---|
口口口口 |③---|
口口口口 |④---|
8
口口口口 |①---|
口口口口 |②---|
④③②① |③---|
口口口口 |④---|
9
口口口口 |①---|
①②③④ |②---|
口口口口 |③---|
口口口口 |④---|
10
口口口口 |①---|
口口口口 |②---|
口③②① |③---|
口口口口 |----|
11
①④口口 |①---|
②③口口 |②---|
口口口口 |③---|
口口口口 |④---|
12
口口④① |①---|
口口③② |②---|
口口口口 |③---|
口口口口 |④---|
13
口口口口 |①---|
口口口口 |②---|
口③④口 |③---|
口①②口 |④---|
14
口④④口 |①---|
①③③② |②---|
口口口口 |③---|
口口口口 |④---|
15
口口口口 |①---|
③口口③ |②---|
口②口口 |③---|
口①口口 |----|
16
口口口口 |①---|
③口口③ |②---|
口口②口 |③---|
口口①口 |----|
17
③④④③ |①---|
口口口口 |②---|
口②口口 |③---|
口①口口 |④---|
18
口口口口 |①---|
③④④③ |②---|
口口②口 |③---|
口口①口 |④---|
19
口③③口 |①---|
口口口口 |②---|
②口口口 |③---|
①口口口 |----|
20
③④④③ |①---|
口口口口 |②---|
口口口② |③---|
口口口① |④---|
21
口④④口 |①---|
口③③口 |②---|
口②②口 |③---|
口①①口 |④---|
22
口口口口 |--①-|
口口②③ |--②-|
①口口口 |③---|
口口口口 |----|
23
口口口口 |①---|
口③③口 |②---|
口②②口 |③---|
口①①口 |----|
24
①②③④ |①---|
口口口口 |②---|
口口口口 |③---|
口口口口 |④---|
25
口口口口 |①---|
口③③口 |②---|
口②②口 |③---|
口①①口 |----|
26
③口②① |①---|
口口口口 |②---|
口口口口 |③---|
口口口口 |----|
27
口口口口 |①---|
①口口① |②---|
②口口② |③---|
③口口③ |----|
28
口口口口 |①---|
①②③④ |②---|
口口口口 |③---|
口口口口 |④---|
29
口①①口 |----|
口口口口 |①---|
③②②③ |②---|
口口口口 |--③-|
30
②口口② |--①-|
①口口① |--②-|
口口口口 |----|
口口口口 |----|
31
口口口口 |①---|
①口口② |----|
口口口口 |②---|
口口口口 |----|
32
口口口口 |①---|
口口口口 |----|
①口口② |②---|
口口口口 |----|
33
口口口口 |①---|
口①②口 |----|
口口口口 |②---|
口口口口 |----|
34
口口口口 |①---|
口口口口 |----|
口①②口 |②---|
口口口口 |----|
35
①①口口 |①---|
口口口口 |----|
口口口口 |----|
口口口口 |----|
36
口口①① |①---|
口口口口 |----|
口口口口 |----|
口口口口 |----|
37
口口口口 |①---|
口①①口 |----|
口口口口 |----|
口口口口 |----|
38
口口口口 |①---|
口口口口 |----|
①①①① |----|
口口口口 |----|
39
口口口口 |①---|
①②口口 |----|
口口口口 |②---|
口口口口 |----|
40
口口口口 |①---|
口口①② |----|
口口口口 |②---|
口口口口 |----|
41
①①口口 |①---|
口口口口 |----|
②②口口 |②---|
口口口口 |----|
42
口口口口 |①---|
口口②② |----|
口口口口 |②---|
口口①① |----|
43
①②口口 |①---|
口口口口 |----|
口口口口 |②---|
口口口口 |----|
44
口口①② |①---|
口口口口 |----|
口口口口 |②---|
口口口口 |----|
45
口口口口 |①---|
口口口口 |----|
口②②口 |②---|
口①①口 |----|
46
②②②② |①---|
口①①口 |----|
口口口口 |②---|
口口口口 |----|
47
口口口口 |①---|
|----|
口口口口 |----|
口口口口 |----|
48
口口口口 |----|
口口口口 |----|
口口口口 |----|
口口口口 |----|
49
口口口口 |----|
口口口口 |----|
口口口口 |----|
口口口口 |----|
50
口口口口 |----|
口口口 |----|
口口口口 |①---|
口口口口 |----|
51
口口口口 |①---|
口口口口 |----|
|----|
口口口口 |----|
52
口口口口 |----|
口口口口 |----|
口口口口 |----|
口口口口 |----|
53
口口口口 |----|
口口口口 |----|
口口口口 |----|
口口口口 |----|
54
口口口口 |----|
口口口口 |----|
口口口 |①---|
口口口口 |----|
55
口口口口 |①---|
|----|
口口口口 |----|
口口口口 |----|
56
口口口口 |----|
口口口口 |----|
口口口口 |----|
口口口口 |----|
57
口口口口 |----|
口口口口 |----|
口口口口 |----|
口口口口 |----|
58
口口口口 |----|
口口口 |----|
口口口口 |----|
口口口口 |①---|
59
口口口口 |①---|
口口口口 |----|
|----|
口口口口 |----|
60
口口口口 |----|
口口口口 |----|
口口口口 |----|
口口口口 |----|
61
口口口口 |----|
口口口口 |----|
口口口口 |----|
口口口口 |----|
62
口口口口 |----|
口口口口 |----|
口口口 |①---|
口口口口 |----|
63
①口口① |①---|
②口口② |②---|
③口口③ |③---|
④口口④ |④---|
64
口口口口 |①---|
口②②口 |----|
口②②口 |②---|
口①①口 |----|
65
①口口② |①---|
口口口口 |----|
口口口口 |②---|
口口口口 |----|
66
口口口口 |①---|
口③③口 |②---|
口②②口 |③---|
口①①口 |----|
67
①口口② |①---|
口口口口 |----|
口口口口 |②---|
口口口口 |----|
68
口口口口 |①---|
口①①口 |②---|
口②②口 |③---|
口③③口 |----|
69
口口口口 |①---|
口口口口 |----|
口口口口 |②---|
①口口② |----|
70
口③③口 |①---|
口②②口 |②---|
口①①口 |③---|
口口口口 |----|
71
口口口口 |①---|
口口口口 |----|
口口口口 |②---|
①口口② |----|
72
③口口③ |①---|
口②②口 |②---|
①口口① |③---|
口口口口 |----|
73
口口口口 |①---|
②口口② |----|
口口口口 |②---|
口①①口 |----|
74
口口口口 |①---|
口③③口 |②---|
口②②口 |③---|
口①①口 |----|
75
口口口口 |①---|
②口口② |----|
口口口口 |②---|
①口口① |----|
76
③口口③ |①---|
口口口口 |②---|
口②②口 |③---|
口①①口 |----|
77
③口口③ |①---|
口口口口 |②---|
②口口② |③---|
①口口① |----|
78
③口口③ |①---|
口口口口 |②---|
口②②口 |③---|
口①①口 |----|
79
口口口口 |①---|
口口口口 |----|
②②②② |②---|
①①①① |----|
80
①口口① |①---|
②口口② |②---|
③口口③ |③---|
④口口④ |④---|
81
口①①口 |①---|
口②②口 |----|
口口口口 |②---|
口口口口 |----|
82
口口口口 |①---|
口口口口 |----|
口①①口 |②---|
口②②口 |----|
83
口口口口 |①---|
①口口② |----|
口口口口 |②---|
口口口口 |----|
84
①口口① |①---|
口④④口 |②---|
②④④② |③---|
口③③口 |④---|
85
①①①① |①---|
②口口③ |----|
口口口口 |②---|
口口口口 |③---|
86
①①①① |①---|
口口口口 |----|
②②②② |②---|
口口口口 |----|
87
①①①① |①---|
口口口口 |----|
②②②② |②---|
口口口口 |----|
88
①口口② |①---|
③口口④ |②---|
口口口口 |③---|
口口口口 |④---|
89
口口口口 |①---|
口口口口 |----|
②②②② |②---|
①①①① |----|
90
①①①① |①---|
口口口口 |----|
口②②口 |②---|
口口口口 |----|
91
①①①① |①---|
口口口口 |----|
口②②口 |②---|
口口口口 |----|
92
①①①① |①---|
②②②② |②---|
③③③③ |③---|
④④④④ |④---|
93
|①---|
|----|
|----|
|----|
94
|①---|
口口口口 |----|
口口口口 |----|
口口口口 |----|

不確定度: 0

最終更新:2016年04月25日 03:28