Sacrifice for Justice
RoughSketch

ADVANCED

Level: 8
BPM: 190
Notes: 535

1
口口口口 |----|
口口口口 |----|
口口口口 |----|
口口口口 |----|
2
口口口口 |----|
口口口口 |----|
口口口口 |----|
口口口口 |----|
3
口①①口 |①---|
口口口口 |----|
口口口口 |②---|
口②②口 |----|
4
口口口④ |①---|
③口口口 |②---|
口口口② |③---|
①口口口 |④---|
5
口①①口 |①---|
口口口口 |----|
口口口口 |②---|
口②②口 |----|
6
口口口④ |①---|
③口口口 |②---|
口口口② |③---|
①口口口 |④---|
7
口①①口 |①---|
口口口口 |----|
口口口口 |②---|
口②②口 |----|
8
口口口④ |①---|
③口口口 |②---|
口口口② |③---|
①口口口 |④---|
9
口①①口 |①---|
口口口口 |----|
口口口口 |②---|
口②②口 |----|
10
①口口① |①---|
口口口口 |----|
口口口口 |②---|
②口口② |----|
11
③⑤⑦口 |①---|
①①①① |②-③-|
②④⑥口 |④-⑤-|
口口口口 |⑥-⑦-|
12
④口口⑥ |--①-|
口②②口 |--②-|
③口口⑤ |③-④-|
口①①口 |⑤-⑥-|
13
口口口口 |①-②-|
②④⑥⑧ |③-④-|
口口口口 |⑤-⑥-|
①③⑤⑦ |⑦-⑧-|
14
口②②⑤ |--①-|
口口口口 |--②-|
③①①口 |③-④-|
口口口④ |⑤---|
15
口⑤口口 |①---|
①口口② |②---|
口③④口 |③-④-|
口口口口 |--⑤-|
16
口口⑦口 |--①-|
⑥口③口 |②-③-|
口口⑤② |④-⑤-|
④口①口 |⑥-⑦-|
17
①口口② |①---|
口⑤⑤口 |②---|
口口口口 |③-④-|
口③④口 |--⑤-|
18
③口口⑥ |--①-|
⑤口口② |②-③-|
①口口④ |④-⑤-|
口口口口 |⑥---|
19
口②②口 |①---|
口口口口 |②---|
口口口口
口①①口

口口口口
③口口④
口口口口 |③-④-|
口⑤⑤口 |--⑤-|
20
③口口口 |--①-|
口⑤②⑦ |②-③-|
①④口⑥ |④-⑤-|
口口口口 |⑥-⑦-|
21
口⑤⑥口 |①-②-|
口⑦⑧口 |③-④-|
②口④口 |⑤-⑥-|
①口③口 |⑦-⑧-|
22
③口口③ |--①-|
②口口② |--②-|
口口口口 |③---|
①口口① |----|
23
④口口④ |①-②-|
口③③口 |③---|
口②②口 |④---|
口①①⑤ |--⑤-|
24
口③口口 |--①-|
⑤口②⑦ |②-③-|
④①口⑥ |④-⑤-|
口口口口 |⑥-⑦-|
25
口口⑤口 |①-②-|
口③④口 |③---|
口口②口 |④-⑤-|
⑥①口⑥ |--⑥-|
26
①口口③ |--①-|
②口口④ |②-③-|
口口口口 |④---|
口口口口 |----|
27
口⑤口口 |①-②-|
口口④口 |③-④-|
口②口③ |⑤---|
①⑥⑥口 |--⑥-|
28
口⑤口口 |--①-|
口口④口 |②---|
①③口② |③-④-|
口口口口 |⑤---|
29
口⑤⑤口 |①---|
①④④① |②-③-|
③口口③ |④-⑤-|
②⑥⑥② |--⑥-|
30
①口口① |--①-|
口口口口 |--②-|
②口口② |----|
口口口口 |----|
31
口口口口 |①-②-|
①②③④ |③-④-|
⑧⑦⑥⑤ |⑤-⑥-|
口口口口 |⑦-⑧-|
32
口口口口 |--①-|
②③④⑤ |--②-|
口口口口 |③-④-|
口①①口 |⑤---|
33
口①①口 |①---|
口④④口 |----|
口③③口 |②--③|
口②②口 |--④-|
34
口口口口 |①---|
②口口③ |----|
口口口口 |②---|
①口口① |③---|
35
①②③④ |①-②-|
口口口口 |③-④-|
口口口口 |⑤---|
口⑤⑤口 |----|
36
口⑥⑥口 |①-②-|
④③②① |③-④-|
口口口口 |⑤---|
口⑤⑤口 |⑥---|
37
口口口③ |①---|
口口口口 |②-③-|
①口口口 |----|
口口口② |----|
38
口②④口 |①-②-|
⑤口口⑤ |③-④-|
口口口口 |--⑤-|
口①③口 |----|
39
口口口口 |①-②-|
⑦口⑥⑤ |③-④-|
①②③④ |⑤-⑥-|
口口口口 |--⑦-|
40
③口口③ |①---|
④口口④ |②---|
②口口② |③---|
①口口① |④---|
41
口②④口 |①-②-|
口①③口 |--③-|
口口口⑤ |④--⑤|
⑥口口口 |--⑥-|
42
口③③口 |①---|
口④④口 |②---|
口②②口 |③---|
口①①口 |④---|
43
④口口④ |①---|
③口口③ |②---|
②口口② |③---|
①口口① |④---|
44
口⑧④口 |①-②-|
口③⑦口 |③-④-|
口⑥②口 |⑤-⑥-|
口①⑤口 |⑦-⑧-|
45
④口口④ |①--②|
③⑥⑥③ |--③-|
②⑤⑤② |-④--|
①口口① |⑤-⑥-|
46
口①①口 |①---|
口口口口 |----|
口口口口 |②---|
②口口② |----|
47
口口口① |①---|
|----|
口口口口 |----|
口口口口 |----|
48
口口口口 |①---|
口口口① |----|
口口口口 |----|
口口口口 |----|
49
口口口口 |①---|
口口口口 |----|
口口口① |----|
口口口口 |----|
50
口口口口 |①---|
口口口 |----|
口口口口 |②---|
口口口① |----|
51
口①口口 |①---|
口口口口 |----|
|----|
口口口口 |----|
52
口口口口 |①---|
口①口口 |----|
口口口口 |----|
口口口口 |----|
53
口口口口 |①---|
口口口口 |----|
口①口口 |----|
口口口口 |----|
54
口口口口 |①---|
口口口口 |----|
口口口 |②---|
口①口口 |----|
55
①口 |①---|
口口 |----|
口口 |----|
口口 |----|
56
口口口口 |①---|
口口①口 |----|
口口口口 |----|
口口口口 |----|
57
口口口口 |①---|
口口口口 |----|
口口①口 |----|
口口口口 |----|
58
口口口口 |①---|
口口口口 |----|
口口口口 |----|
①口 |②---|
59
口①口 |①---|
口口口 |----|
口口口 |----|
口口口 |----|
60
口口口口 |①---|
口①口口 |----|
口口口口 |----|
口口口口 |----|
61
口口口口 |①---|
口口口口 |----|
口①口口 |----|
口口口口 |----|
62
口口口口 |①---|
口口口口 |----|
口口口口 |②---|
口①口 |----|
63
口口口口 |①---|
②③④口 |②-③-④-|
①口口①
口口口口

口口口口
口口口⑤
口口口⑦ |⑤---|
⑥口口口 |⑥---⑦-|
64
口口口① |①---|
口②②口 |----|
口②②口 |②---|
口口口口 |----|
65
口③③口 |①---|
②口口② |②---|
口口口口 |③---|
①④④① |④---|
66
口⑤⑤口 |①---|
②④④② |②---|
口③③口 |③---④-|
①口口① |--⑤---|
67
④口口④ |①---|
③口口③ |②---|
②口口② |③---|
口①①口 |④---|
68
口②②口 |①---|
⑤口口⑤ |②---|
④口口④ |③---④-|
③①①③ |--⑤---|
69
①③③① |①---|
口口口口 |②---|
④口口④ |③---|
口②②口 |④---|
70
口口口口 |①---|
①⑤⑤② |②---|
口④④口 |③---④-|
口③③口 |--⑤---|
71
③①①③ |①---|
口口口口 |②---|
口④④口 |③---|
②口口② |④---|
72
口口口口 |①---|

口口口口
口口口口

口口口口
口口口 |②---|

口口口口

口口口口
口口口口
口口口 |③---|


口口口口
口口口口
口口口口
口口口 |④---|
73
②③④⑤ |①---|
口口口⑦ |②-③-④-|
口①①⑥ |⑤---⑥-|
口口口口 |--⑦---|
74
口口口口 |①---|
口⑤口口 |②---|
口④口口 |③---④-|
口③②① |--⑤---|
75
口①②③ |①---|
口口口④ |②---|
口口口⑤ |③---④-|
口口口口 |--⑤---|
76
③口口口 |①---|
④口口口 |②---|
⑤口口口 |③---④-|
口②②① |--⑤---|
77
口口口③ |①---|
口②②④ |②---|
口口口⑤ |③---④-|
①口口口 |--⑤---|
78
③②②口 |①---|
④口口口 |②---|
⑤口口口 |③---④-|
口口口① |--⑤---|
79
口⑥⑥口 |①---②-|
口③③口 |③---|
口②⑤口 |④---⑤-|
①口口④ |⑥---|
80
①口口① |①---|
②口口② |②---|
③口口③ |③---|
④口口④ |④---|
81
①口口② |①---|
③口口④ |②---|
口口口口 |③---|
口口口口 |④---|
82
⑤口口口 |①---|
④口口口 |②---|
③①②口 |③---④-|
口口口口 |--⑤---|
83
口④④口 |①---|
口③③口 |②---|
口②②口 |③---|
口①①口 |④---|
84
③口口③ |①---|
口口口口 |②---|
②口口② |③---|
④①①④ |④---|
85
口⑥⑥口 |①-②-③-|
①②③④ |④---|
口口口口 |⑤---|
口⑤⑤口 |⑥---|
86
口口口口 |①---②-|
⑤口口口 |③---|
①口②③ |④---|
口④④口 |----⑤-|
87
①⑤⑤③ |①---②-|
⑥口口② |③---|
口口口口 |④---|
口④④口 |⑤---⑥-|
88
①口口口 |①-②-③-|
口②③④ |④-⑤-⑥-|
⑤⑥⑦⑧ |⑦-⑧-⑨-|
口口口⑨ |----|
89
口②②口 |①---|
口③③口 |②---|
④口口④ |③---④-|
⑤①①⑤ |⑤---|
90
①口口① |①---|
①口④① |----|
口口③口 |②-③-|
口口②口 |④---|
91
②口口② |①---|
②口口② |----|
①口口① |②---|
①口口① |----|
92
④口口④ |①---|
③口口③ |②---|
②口口② |③---|
①口口① |④---|
93
口 |①---|
口 |----|
口 |----|
口 |----|
94
口口口口 |①---|
口 |----|
口 |----|
口口口口 |----|

不確定度: 0

最終更新:2016年04月25日 03:27