Sacrifice for Justice
RoughSketch

EXTREME

Level: 10
BPM: 190
Notes: 860

1
口口口口 |----|
口口口口 |----|
口口口口 |----|
口口口口 |----|
2
口口 |①---|
口口 |----|
口口 |----|
口口 |----|
3
口②②口 |①---|
口口口口 |----|
口①①口 |②---|
口口 |----|
4
①③③① |①---|
口口口口 |②---|
口口口口 |③---|
②④④② |④---|
5
②口口② |①---|
口口口口 |----|
①口口① |②---|
口口口口 |----|
6
③①①③ |①---|
口口口口 |②---|
口口口口 |③---|
④②②④ |④---|
7
口③口口 |①---|
①②④① |②-③-④-|
①口口①
口口口口

口口⑤口
⑦口口口
口口口口 |⑤---|
⑥口口⑥ |⑥---⑦-|
8
①④⑤③ |①---②-|
口④⑤② |③---|
口⑥口口 |④---⑤-|
口⑥口口 |--⑥---|
9
⑥口口⑥ |①---|
③口口⑤ |②-③-④-|
②口①④ |⑤---|
口口①口 |⑥---|
10
口④④口 |①---②-|
口口③口 |③---|
口②口口 |④---|
①口口① |----|
11
|①---|
口口口② |②---|

口口口②

口口⑥口
口口⑤口
口④口口 |③-④-|
口③口口 |⑤-⑥-|
12
口口⑥① |--①-|
口②口⑤ |--②-|
口口④① |③-④-|
口②口③ |⑤-⑥-|
13
口口⑧④ |①-②-|
口⑥②口 |③-④-|
口口⑦③ |⑤-⑥-|
口⑤①口 |⑦-⑧-|
14
口口⑤ |--①-|
口④①② |--②-|
③口⑤ |③-④-|
口口①② |⑤---|
15
口①①口 |①---|
③口口④ |②---|
口⑤⑤口 |③-④-|
③②②④ |--⑤-|
16
⑤②②⑦ |--①-|
口口口口 |②-③-|
③口口③ |④-⑤-|
④①①⑥ |⑥-⑦-|
17
⑦⑤⑤⑦ |①---|
③①①③ |②-③④|
④⑧⑧④ |⑤-⑥-|
⑥②②⑥ |⑦-⑧-|
18
⑥④口⑥ |①-②-|
口①①③ |③-④-|
口⑦⑦口 |⑤-⑥-|
⑤②口⑤ |⑦---|
19
口②②口 |①---|
③口口④ |②---|
口口口口 |③-④-|
⑤①①⑤ |--⑤-|
20
口②口⑧ |①-②-|
⑥口③口 |③-④-|
①④⑦① |⑤-⑥-|
口⑤口口 |⑦-⑧-|
21
①⑧①⑧ |①-②-|
⑤口⑤② |③-④-|
口⑥⑦④ |⑤-⑥-|
③⑦③⑥ |⑦-⑧-|
22
③口③口 |--①-|
②①②① |--②-|
口口口④ |③---|
①口①④ |④---|
23
④①④① |①-②-|
③⑤③⑤ |③---|
口口口口 |④---|
②⑥②口 |⑤-⑥-|
24
⑤①口⑦ |--①-|
口口口口 |②-③-|
④②③⑥ |④-⑤-|
口口口口 |⑥-⑦-|
25
口①口口 |①-②-|
口口口口 |③---|
口口口口
口②③口

口⑥⑥口
⑤口口④
口口口口 |④-⑤-|
口口口口 |--⑥-|
26
口口口口 |--①-|
口③口口 |②-③-|
口口②④ |④---|
口①⑤⑤ |⑤---|
27
②①③④ |①-②-|
⑤⑦②① |③-④-|
③④⑦⑤ |⑤-⑥-|
口口⑥⑥ |--⑦-|
28
②①口③ |--①-|
⑤⑦②① |②-③-|
口⑥⑦③ |④-⑤⑥|
④口⑤④ |⑦---|
29
④口①⑤ |①---|
口口口① |②③④⑤|
②口口③
口口口口

口口口口
⑦口⑧⑧
口口口口 |⑥-⑦-|
⑥口口口 |--⑧-|
30
③④⑤⑥ |--①-|
⑦⑧⑨⑩ |--②-|
①①口口 |③④⑤⑥|
口口②② |⑦⑧⑨⑩|
31
口⑧⑩口 |①-②-|
⑪口口⑫ |③④⑤⑥|
①⑦⑨② |⑦⑧⑨⑩|
③④⑤⑥ |⑪-⑫-|
32
⑨口⑦口 |--①②|
口⑤口口 |③-④⑤|
⑧④⑥口 |⑥-⑦-|
①②③口 |⑧-⑨-|
33
口口口① |①②③④|
口⑤⑤② |----|
口⑥⑥③ |⑤--⑥|
口⑦⑦④ |--⑦-|
34
①②③④ |①②③④|
⑤口口⑨ |⑤⑥⑦-|
⑥口口口 |⑧---|
⑦口口⑧ |⑨---|
35
④②②④ |①-②-|
口口⑤口 |③-④-|
口③③⑤ |⑤---|
口①①口 |----|
36
④②②④ |①-②-|
口口⑤⑤ |③-④-|
⑥口口⑥ |⑤---|
①③③① |⑥---|
37
口①①口 |①---|
口④⑤⑥ |②-③-|
口②②口 |--④⑤|
口③③口 |⑥---|
38
③口④② |①-②-|
①⑤⑤口 |③-④-|
③口④② |--⑤-|
①⑤⑤口 |----|
39
⑤⑫口① |①②③④|
⑥口⑪② |⑤⑥⑦⑧|
⑦口⑩③ |⑨⑩⑪-|
⑧口⑨④ |--⑫-|
40
⑥⑯⑨⑧ |①②③④|
⑭②⑩④ |⑤⑥⑦⑧|
⑤⑮⑪⑦ |⑨⑩⑪⑫|
⑬①⑫③ |⑬⑭⑮⑯|
41
④口口③ |①-②-|
⑥②⑤③ |--③-|
④口口口 |④--⑤|
⑥口⑤① |--⑥-|
42
⑩①⑫⑤ |①②③④|
⑭②⑯⑥ |⑤⑥⑦⑧|
⑨③⑪⑦ |⑨⑩⑪⑫|
⑬④⑮⑧ |⑬⑭⑮⑯|
43
⑤①⑦③ |①-②-|
口口口口 |③-④-|
口口口口 |⑤-⑥-|
⑥②⑧④ |⑦-⑧-|
44
⑪口口⑨ |①②③④|
①②③④ |⑤⑥⑦-|
⑤⑥⑦⑫ |⑧-⑨-|
⑩口口⑧ |⑩-⑪⑫|
45
口①口口 |①-②③|
①⑤④② |-④⑤-|
③⑤口口
口③口口

口口⑦⑦
⑨口口口
口口口⑨ |⑥⑦--|
⑧口⑥⑧ |⑧-⑨-|
46
①⑨⑫⑧ |①②③④|
⑮⑤⑥② |⑤⑥⑦⑧|
③⑪④⑭ |⑨⑩⑪⑫|
⑬⑦⑩⑯ |⑬⑭⑮⑯|
47
|①---|
口口口口 |----|
口口口口 |----|
口口口口 |----|
48
口口口口 |①---|
口口①① |----|
口口口口 |----|
口口口口 |----|
49
口口口口 |①---|
口口口口 |----|
口口①① |----|
口口口口 |----|
50
口口口 |①---|
口口口口 |----|
口口口口 |②---|
口口①① |----|
51
口口①① |①---|
|----|
口口口口
口口口口

口口口口
口口②口
口口口口 |②---|
口口口口 |----|
52
口口口口 |①---|
口口口① |----|
口口②口 |②---|
口口口口 |----|
53
口口口口 |①---|
口口口口 |----|
口口口① |②---|
口口②口 |----|
54
口口口口 |①---|
口口口 |----|
口口口口 |②---|
口②口① |----|
55
③口口口 |①---|
口口口口 |②-③-④-|
②①①④
口口口口

口口口⑤
口⑥⑥口
口口⑦口 |⑤---|
口口口口 |⑥---⑦-|
56
⑤口①⑤ |①---|
④口口④ |②---|
③口口③ |③---④-|
口②②口 |--⑤---|
57
⑥口口⑥ |①---|
口③⑤口 |②-③-④-|
口①①口 |⑤---|
口②④口 |⑥---|
58
口②②口 |①---|
口⑤⑧口 |②---|
口⑦④口 |③-④-⑤-|
①③⑥① |⑥-⑦-⑧-|
59
①口口① |①---|
③口口⑤ |②-③-④-|
口口⑦口 |⑤---|
②⑥⑥④ |⑥---⑦-|
60
②口①② |①---|
③口口③ |②---|
⑤口口⑤ |③---④-|
④口口④ |--⑤---|
61
口口口口 |①---|
口 |----|
口 |----|
口 |----|
62
口口口口 |----|
口口口口 |----|
口口口口 |----|
口 |①---|
63
口口口口 |①---|


口口口口

口⑥⑤口
口口口④ |②-③-④-|
口口③⑦ |⑤---|
口口口② |⑥---⑦-|
64
口口口① |①---|
②②口 |----|
②②口 |②---|
口口口口 |----|
65
③⑤口⑤ |①---|
口⑥⑥口 |②-③-④-|
口口⑦② |⑤---|
②①①④ |⑥---⑦-|
66
④口①④ |①---|
口口口口 |②---|
③口口③ |③---④-|
⑤②②⑤ |--⑤---|
67
⑥口②⑥ |①---|
口③⑤口 |②-③-④-|
⑤①①口 |⑤---|
口②④口 |⑥---|
68
口②②口 |①---|
口⑤⑤口 |②---|
口④④口 |③---④-|
①③③① |--⑤---|
69
①口口① |①---|
③口口⑤ |②-③-④-|
②口口⑤ |⑤---|
②⑥⑥④ |⑥---|
70
②①①② |①---|
③口口③ |②---|
⑤口口⑤ |③---④-|
④口口④ |--⑤---|
71
⑥口口⑥ |①---|
④口口③ |②-③-④-|
口②②口 |⑤---|
⑤①①⑤ |⑥---|
72
口①①口 |①---|
口口口口 |②---|

口口口口

口口口口

口口口 |③---|
口口口口

口口口口
口口口
口口口口
口口口口 |④---|
73
口③口口 |①---|
②口口口 |②-③-④-|
口②④口
①①①①

口口⑤⑤
口⑥口口
⑥口口⑦ |⑤---⑥-|
口口⑦口 |--⑦---|
74
口口口口 |①-②---|
③口④② |③-④---|
口③口口
①①口口

⑥口口口
口口口口
⑤口口⑥ |⑤---⑥-|
口⑦⑦⑤ |--⑦---|
75
⑦口③⑦ |①---|
⑥①②⑥ |②-③-④-|
⑤②①⑤ |⑤---⑥-|
④口口口 |--⑦---|
76
口口口口 |①---|
口口口口
口口口口
口①①口

口口口口
口口口口 |②---|
口口口口


⑤口口⑤
口④④口
口③③口 |③---④-|
口口口 |--⑤---|
77
口口口口 |①---|
③口口口 |②-③-④-|
②口口④
②①①口

口⑥⑥口
口⑤⑤⑤
口口口口 |⑤---⑥-|
口⑦⑦口 |--⑦---|
78
①口口① |①---|
④口口④ |②---|
②②②② |③---④-|
③⑤⑤③ |--⑤---|
79
①①①① |①---②-|
⑥②②⑥ |③---|
③⑤⑤③ |④---⑤-|
④⑥⑥④ |⑥---|
80
①①①① |①---|
④②②④ |②---|
②③③② |③---|
③④④③ |④---|
81
|①---|
口口口口
口口口口
口口口口

口口口
口口口口 |②---|

口口口口

口口口口
口口口口
口口口 |③---|


口口口口

口⑤口口
口口口 |④---⑤-|
82
③①口口 |①-②-③-|
口口口 |④---|
②口口口


口口口口

口口口口 |⑤--|
口口口

口口口口
口口口
|-⑥-|
口口口口

口口
口口

口口 |--⑦---|
83
口③口口 |①---②-|
⑦②⑥④ |③---④-|
①⑤⑧⑩ |⑤-⑥-⑦-|
口口 |⑧-⑨-⑩-|
84
口③③口 |①---|
口口口口 |②---|
口④④口 |③---|
口①②② |④---|
85
③⑥⑥④ |①-②-③-|
①口口② |④---|
③口口④ |⑤---|
①⑤⑤② |⑥---|
86
②口口③ |①---②-|
口口口口 |③---|
①②③口
①口口口

口口口口
④④④④
口口口口 |④---|
|⑤--|

口口口口
口口口口
口口口口
口⑦⑦ |⑥⑦-|
87
②①①③ |①---②-|
口口口口 |③---|
口②③口
口口口口

口⑥⑥口
④口口口
口口口④ |④---|
⑤口口⑤ |⑤---⑥-|
88
④口口⑦ |①-②-③-|
⑧⑥口③ |④-⑤-⑥-|
②口⑨⑤ |⑦-⑧-⑨-|
口①①口

口口口
口口口
口口口
口口口 |⑩-|

口口口口
口口口口
口口口口
口口口 |⑪-|
89
口①①④ |①---|
③口③口 |②---|
④口口口 |③---④-|
口②②口

口口口
口口口
口口口
口口口 |⑤-|

口口口口
口口口口
口口口口
口口口 |⑥-|
90
口口口口 |①②③-④-|
口④口⑤ |⑤---|
口①②③
口口口口

口口
口口
口口 |⑥-|
口口

口口
口口
口口口 |⑦-|


口口口
口口口
口口口
口口 |⑧-|

口口口口
口口口口
口口口口
口口口 |⑨-|
91
口口口口 |①②③|
口①②③
口口口口
口口口口

口口口口 |-④-|

口口口口
口口口口

口⑥⑦⑧
口口口 |----⑤-|
口口口口 |⑥⑦⑧|
口口口口


口口口口
口口口口 |-⑨-|
口口口口

口口口
口口口口
口口口口
口口口口 |----⑩-|
92
⑩⑪⑫⑬ |①②③---|
⑭⑦⑧⑨ |④⑤⑥---|
⑮④⑤⑥ |⑦⑧⑨---|
口①②③ |⑩⑪⑫⑬⑭⑮|
93
口口口口 |①---|
口口口口 |----|
口口口口 |----|
|----|
94
口口口口 |①---|
口口口口 |----|
口口口口 |----|
口口口 |----|

不確定度: 0

最終更新:2016年04月25日 03:21