STATIC
164 feat.GUMI

BASIC

Level: 3
BPM: 255
Notes: 204

1
口口口口 |----|
口口口口 |----|
口口口口 |----|
口口口口 |----|
2
口口口口 |①---|
口口口① |----|
口口口② |②---|
口口口口 |----|
3
口口口口 |①---|
口口口口 |----|
口口口口 |----|
口口口① |----|
4
口口口口 |①---|
①口口口 |----|
②口口口 |②---|
口口口口 |----|
5
口口口口 |①---|
口口口口 |----|
口口口口 |----|
①口口口 |----|
6
口口口口 |①---|
口口①口 |----|
口口②口 |②---|
口口口口 |----|
7
口口口口 |①---|
口口口口 |----|
口口口口 |----|
口口①口 |----|
8
口口口口 |①---|
口①口口 |----|
口②口口 |②---|
口口口口 |----|
9
口口口口 |①---|
口口口口 |----|
口口口口 |----|
口①口口 |----|
10
口口口口 |①---|
口口口② |----|
口口口① |②---|
口口口口 |----|
11
口口口① |①---|
口口口口 |----|
口口口口 |----|
口口口口 |----|
12
口口口口 |①---|
②口口口 |----|
①口口口 |②---|
口口口口 |----|
13
①口口口 |①---|
口口口口 |----|
口口口口 |----|
口口口口 |----|
14
口口口口 |①---|
口口②口 |----|
口口①口 |②---|
口口口口 |----|
15
口口①口 |①---|
口口口口 |----|
口口口口 |----|
口口口口 |----|
16
口口口口 |①---|
口②口口 |----|
口①口口 |②---|
口口口口 |----|
17
口①口口 |①---|
口口口口 |----|
口口口口 |----|
口口口口 |----|
18
口口口口 |①---|
口①①口 |----|
口②②口 |----|
口口口口 |②---|
19
口口口口 |----|
口口口口 |----|
口口口口 |----|
口口口口 |----|
20
口口口口 |①---|
口②②口 |----|
口①①口 |----|
口口口口 |②---|
21
口口口口 |----|
口口口口 |----|
口口口口 |----|
口口口口 |----|
22
口口口口 |①---|
口①①口 |----|
口②②口 |----|
口口口口 |②---|
23
口口口口 |----|
口口口口 |----|
口口口口 |----|
口口口口 |----|
24
口口口口 |①---|
口②②口 |----|
口①①口 |----|
口口口口 |②---|
25
口口口口 |----|
口口口口 |----|
口口口口 |----|
口口口口 |----|
26
口口口口 |①---|
①口口① |----|
②口口② |----|
口口口口 |②---|
27
口口口口 |----|
口口口口 |----|
口口口口 |----|
口口口口 |----|
28
口口口口 |①---|
②口口② |----|
①口口① |----|
口口口口 |②---|
29
口口口口 |----|
口口口口 |----|
口口口口 |----|
口口口口 |----|
30
口口口口 |①---|
①口口① |----|
②口口② |----|
口口口口 |②---|
31
口口口口 |----|
口口口口 |----|
口口口口 |----|
口口口口 |----|
32
口①①口 |①---|
口②②口 |----|
口口口口 |②---|
口口口口 |----|
33
口口口口 |①---|
口口口口 |----|
口①①口 |②---|
口②②口 |----|
34
口口口口 |①---|
口口口口 |----|
口口口② |②---|
口口口① |----|
35
口口口② |①---|
口口口① |----|
口口口口 |②---|
口口口口 |----|
36
口口口口 |①---|
口口口口 |----|
②口口口 |②---|
①口口口 |----|
37
②口口口 |①---|
①口口口 |----|
口口口口 |②---|
口口口口 |----|
38
口②①口 |①---|
口口口口 |----|
口口口口 |②---|
口口口口 |----|
39
口口口口 |①---|
口②①口 |----|
口口口口 |②---|
口口口口 |----|
40
口口口口 |①---|
口口口口 |----|
口②①口 |②---|
口口口口 |----|
41
口口口口 |①---|
口口口口 |----|
口口口口 |②---|
口②①口 |----|
42
口口口口 |①---|
口口口口 |----|
②口口① |②---|
口口口口 |----|
43
口口口口 |①---|
②口口① |----|
口口口口 |②---|
口口口口 |----|
44
口口口口 |①---|
口②①口 |----|
口口口口 |②---|
口口口口 |----|
45
口口口口 |①---|
口口口口 |----|
口②①口 |②---|
口口口口 |----|
46
口口口口 |①---|
②口口① |----|
口口口口 |②---|
口口口口 |----|
47
口口口口 |①---|
口②①口 |----|
口口口口 |②---|
口口口口 |----|
48
口口口口 |①---|
②口口① |----|
口口口口 |②---|
口口口口 |----|
49
口口口口 |①---|
口口口口 |----|
②口口① |②---|
口口口口 |----|
50
口口口口 |①---|
口口③口 |--②-|
口②口口 |----|
口口①口 |③---|
51
口口口口 |----|
口口口① |----|
口口口口 |①---|
口口口口 |----|
52
口口口① |①---|
口口②口 |----|
口口口口 |②---|
口口口口 |----|
53
口口口口 |①---|
口口口口 |----|
口①口口 |②---|
②口口口 |----|
54
口口口口 |①---|
口③口口 |--②-|
口口②口 |----|
口①口口 |③---|
55
口口口口 |----|
①口口口 |----|
口口口口 |①---|
口口口口 |----|
56
①口口口 |①---|
口②口口 |----|
口口口口 |②---|
口口口口 |----|
57
口口口口 |①---|
口口口口 |----|
口口①口 |②---|
口口口② |----|
58
口口口口 |①---|
口口③口 |--②-|
口②口口 |----|
口口①口 |③---|
59
口口口口 |----|
口口口① |----|
口口口口 |①---|
口口口口 |----|
60
口口口① |①---|
口口②口 |----|
口口口口 |②---|
口口口口 |----|
61
口口口口 |①---|
口口口口 |----|
口①口口 |②---|
②口口口 |----|
62
口口口口 |①---|
口口口口 |----|
口口口口 |----|
口①①口 |----|
63
口口口口 |①---|
口口口口 |----|
口①①口 |----|
口口口口 |----|
64
口口口口 |①---|
口①①口 |----|
口口口口 |----|
口口口口 |----|
65
口①①口 |①---|
口口口口 |----|
口口口口 |----|
口口口口 |----|
66
口口口口 |①---|
口口口口 |----|
口③③口 |②---|
口②①口 |--③-|
67
口口①口 |----|
口口口口 |----|
口口口口 |①---|
口口口口 |----|
68
口①口口 |①---|
口口②口 |----|
口口口口 |②---|
口口口口 |----|
69
口口口口 |①---|
口①口口 |----|
口口②口 |②---|
口口口口 |----|
70
口口口口 |①---|
口口口口 |----|
口①口口 |②---|
口口口② |----|
71
口口口口 |①---|
口口口口 |----|
口口口② |②---|
①口口口 |----|
72
口口口口 |①---|
口口口② |----|
①口口口 |②---|
口口口口 |----|
73
口口口口 |①---|
①口口口 |----|
口口口口 |----|
口口口口 |----|
74
口口口口 |----|
口口①口 |----|
口口口口 |①---|
口口口口 |----|
75
口口口口 |①---|
口①口口 |----|
口口②口 |②---|
口口口口 |----|
76
口口口口 |①---|
口口口口 |----|
口①口口 |②---|
口口②口 |----|
77
口口口口 |①---|
口口口口 |----|
口口口口 |②---|
口①口② |----|
78
口口口口 |①---|
口口口口 |----|
口口口② |②---|
①口口口 |----|
79
口口口口 |①---|
口口口② |----|
①口口口 |②---|
口口口口 |----|
80
口口口② |①---|
①口口口 |----|
口口口口 |②---|
口口口口 |----|
81
①口口口 |①---|
口口口口 |----|
口口口口 |----|
口口口口 |----|
82
口口口口 |----|
口口口口 |----|
口②②口 |①---|
口①①口 |--②-|
83
口口口口 |----|
口口口口 |----|
口口口① |①---|
口口口口 |----|
84
口口口口 |①---|
口口口② |----|
①口口口 |②---|
口口口口 |----|
85
口口口口 |①---|
①口②口 |----|
口口口口 |②---|
口口口口 |----|
86
口口口口 |①---|
口①口口 |----|
口口口② |②---|
口口口口 |----|
87
口口口口 |①---|
口口口② |----|
①口口口 |②---|
口口口口 |----|
88
口口口② |①---|
①口口口 |----|
口口口口 |②---|
口口口口 |----|
89
①口口口 |①---|
口口口口 |----|
口口口口 |----|
口口口口 |----|
90
口口口口 |----|
口口口口 |----|
口①①口 |①---|
口口口口 |----|
91
口口口口 |①---|
口口口口 |----|
口口口口 |②---|
口①①② |----|
92
口口口口 |①---|
口口口② |----|
口口口① |②---|
口口口口 |----|
93
②口口① |①---|
口口口口 |----|
口口口口 |②---|
口口口口 |----|
94
口口口口 |①---|
口②①口 |----|
口口口口 |②---|
口口口口 |----|
95
口口口口 |①---|
口口口口 |----|
口①①口 |----|
口口口口 |----|
96
口口口口 |----|
口口口口 |----|
口口口口 |----|
口口口口 |----|
97
口口口口 |----|
口口口口 |----|
口口口口 |----|
口口口口 |----|
98
口口口口 |----|
口口口口 |----|
口口口口 |----|
口口口口 |----|
99
口口口口 |①---|
口①①口 |----|
口②②口 |----|
口口口口 |②---|
100
口口口口 |----|
口口口口 |----|
口口口口 |----|
口口口口 |----|
101
口口口口 |①---|
口②②口 |----|
口①①口 |----|
口口口口 |②---|
102
口口口口 |----|
口口口口 |----|
口口口口 |----|
口口口口 |----|
103
口口口口 |①---|
①口口① |----|
②口口② |----|
口口口口 |②---|
104
口口口口 |----|
口口口口 |----|
口口口口 |----|
口口口口 |----|
105
口口口口 |①---|
②口口② |----|
①口口① |----|
口口口口 |②---|
106
口口口口 |----|
口口口口 |----|
口口口口 |----|
口口口口 |----|
107
口口口口 |----|
口②①口 |--①-|
口口口口 |----|
口口口口 |②---|
108
口口口口 |----|
口口口口 |①---|
口口口口 |----|
口①①口 |----|
109
口口口口 |----|
口口口口 |----|
口口口口 |----|
口口口口 |----|
110
口口口口 |----|
口口口口 |----|
口口口口 |----|
口口口口 |----|
111
口口口口 |----|
口口口口 |----|
口口口口 |----|
口口口口 |----|
112
口口口口 |----|
口口口口 |----|
口口口口 |----|
口口口口 |----|
113
口口口口 |----|
口口口口 |----|
口口口口 |----|
口口口口 |----|
114
口口口口 |----|
口口口口 |----|
口口口口 |----|
口口口口 |----|
115
口口口口 |----|
口口口口 |----|
口口口口 |----|
口口口口 |----|
116
口口口口 |----|
口口口口 |----|
口口口口 |①---|
口口口① |----|

不確定度: 0

最終更新:2016年04月21日 01:29