STATIC
164 feat.GUMI

ADVANCED

Level: 8
BPM: 255
Notes: 577

1
口②①口 |----|
口口③口 |----|
口口口口 |--①-|
口口口口 |②-③-|
2
口口口口 |①-②-|
口①口口 |③-④-|
口③②⑧ |⑤-⑥-|
⑦⑤④⑥ |⑦-⑧-|
3
口口口③ |①-②-|
口⑤④② |--③-|
①口口口 |--④-|
口口口口 |⑤---|
4
口口口口 |①---|
⑤口口口 |②-③-|
④①口口 |④---|
口②③口 |⑤---|
5
①口口② |①-②-|
口口口③ |--③-|
⑤口⑥④ |--④-|
口口口口 |⑤-⑥-|
6
④③口口 |①---|
口②口口 |②---|
口①口口 |③---|
口口口口 |④---|
7
口口口口 |①-②-|
①口口② |--③-|
口口口③ |--④-|
⑤口⑥④ |⑤-⑥-|
8
口⑤⑥口 |①-②-|
口④口口 |③---|
口③②口 |④---|
口①口口 |⑤-⑥-|
9
①口口② |①-②-|
③口口④ |③-④-|
⑥口口⑤ |--⑤-|
口口⑦口 |⑥-⑦-|
10
口口口口 |①---|
口⑥⑦口 |②-③-|
口④⑤口 |④-⑤-|
②①口③ |⑥-⑦-|
11
①口口② |①-②-|
口口口③ |--③-|
⑤口口④ |--④-|
口口⑥口 |⑤-⑥-|
12
口⑥⑤⑦ |①-②-|
口口④口 |③-④-|
口③②口 |--⑤-|
口①口口 |⑥-⑦-|
13
①口口口 |①-②-|
口口口② |--③-|
口口口③ |--④-|
⑤口⑥④ |⑤-⑥-|
14
⑥口口口 |①-②-|
⑤口口④ |③-④-|
口③②口 |⑤---|
口①口口 |⑥---|
15
口①②口 |①-②-|
口口③口 |--③-|
口⑤④口 |--④-|
口口⑥口 |⑤-⑥-|
16
口口口口 |①---|
④口口口 |②---|
③口口口 |③---|
②①口口 |④---|
17
①口口② |①-②-|
口口口③ |--③-|
口口口④ |--④-|
口口口⑤ |--⑤-|
18
⑥⑤口⑦ |①-②-|
口③④口 |③-④-|
口①②口 |⑤---|
口口口口 |⑥-⑦-|
19
口口口口 |--①-|
①口口② |----|
口口口口 |②---|
口①②③ |--③-|
20
④口口⑤ |①---|
③口口口 |②---|
②口口口 |③---|
①口口口 |④-⑤-|
21
口②①口 |--①-|
口④③口 |②-③-|
口⑥⑤口 |④-⑤-|
口口⑦口 |⑥-⑦-|
22
口口口口 |①-②-|
③⑥⑦② |③-④-|
⑤口口④ |⑤---|
口①口口 |⑥-⑦-|
23
口口口口 |--①-|
口③口口 |----|
口②①口 |②---|
②口口① |--③-|
24
口口口① |①---|
口口口② |②---|
口口口③ |③---|
⑤口口④ |④-⑤-|
25
口①②口 |--①-|
③口口④ |②-③-|
⑤口口⑥ |④-⑤-|
口⑦口口 |⑥-⑦-|
26
⑦口⑤⑥ |①-②-|
口④③口 |③-④-|
口②①口 |⑤---|
口口口口 |⑥-⑦-|
27
口口口口 |--①-|
②口口① |----|
口口口口 |②---|
③②①口 |--③-|
28
⑤口口④ |①---|
口口口③ |②---|
口口口② |③---|
口口口① |④-⑤-|
29
口①②口 |--①-|
口③④口 |②-③-|
口⑤⑥口 |④-⑤-|
口⑦口口 |⑥-⑦-|
30
口口口口 |①-②-|
②⑦⑥③ |③-④-|
④口口⑤ |⑤---|
口口①口 |⑥-⑦-|
31
③口口口 |--①-|
口口口口 |----|
口①②口 |②---|
①口口② |--③-|
32
口口口① |①---|
③口口② |②-③-|
④口口⑤ |--④-|
口口口口 |⑤---|
33
口口口口 |①-②-|
口④③口 |----|
口⑥⑤口 |③-④-|
②口口① |⑤-⑥-|
34
口口口口 |--①-|
口口口口 |--②-|
⑤口口④ |③---|
②①口③ |④-⑤-|
35
④口口③ |①-②-|
⑤②①口 |③-④-|
口⑥口口 |--⑤-|
口口口口 |--⑥-|
36
口口口口 |--①-|
口⑦口口 |②-③-|
⑤口口⑥ |④-⑤-|
①③④② |⑥-⑦-|
37
⑥⑧口⑦ |①-②-|
④口①⑤ |③-④-|
口②③口 |⑤-⑥-|
口口口口 |⑦-⑧-|
38
口口①口 |①-②-|
口②③口 |③---|
⑥口⑦口 |④-⑤-|
④口⑤口 |⑥-⑦-|
39
口口口⑦ |--①-|
口⑥口⑤ |②-③-|
口④口③ |④-⑤-|
口②口① |⑥-⑦-|
40
口口①口 |--①-|
③口②口 |--②-|
④口⑤口 |③---|
口口口口 |④-⑤-|
41
口口口口 |①-②-|
口⑦口口 |③-④-|
口⑤口⑥ |⑤-⑥-|
①③②④ |⑦---|
42
②①口口 |①---|
③口口④ |②---|
⑤口口口 |③-④-|
口口口口 |⑤---|
43
口口口口 |①---|
口⑤⑥口 |②-③-|
口④口口 |④---|
①②③口 |⑤-⑥-|
44
②①口③ |①---|
④口口⑤ |②---|
口⑥口口 |③-④-|
口口口口 |⑤-⑥-|
45
口口口口 |①-②-|
口口口口 |③-④-|
口口①⑥ |⑤---|
②④⑤③ |⑥---|
46
口口③② |①---|
⑤口①④ |②---|
口口口口 |③---|
口口口口 |④-⑤-|
47
口口口口 |①-②-|
口口口口 |③-④-|
②⑦⑥① |⑤---|
④口⑤③ |⑥-⑦-|
48
口④③⑤ |①-②-|
②⑦⑥① |③-④-|
口口口口 |⑤---|
口口口口 |⑥-⑦-|
49
口口口口 |①-②-|
口口口⑥ |③-④-|
②口⑤① |⑤---|
口④③口 |⑥---|
50
③口口③ |①---|
口口口口 |--②-|
②口口② |----|
①口口① |③---|
51
④口口口 |----|
口③②口 |①---|
口口①口 |②-③-|
口口口口 |--④-|
52
口④口① |①---|
口口口② |②---|
口口口③ |③---|
口口口口 |④---|
53
口口口口 |①---|
口①口口 |②---|
口②③口 |③---|
口④④口 |④---|
54
③口口③ |①---|
口口口口 |--②-|
②口口② |----|
①口口① |③---|
55
口口口口 |----|
口②①口 |①-②-|
口③口口 |--③-|
口④口口 |--④-|
56
③口口④ |①---|
③口口④ |②---|
口口口② |③---|
口口①② |④---|
57
口③④口 |①---|
口③④口 |②---|
①口②口 |③---|
①口②口 |④---|
58
①口口③ |①---|
②口口口 |--②-|
口口口② |----|
③口口① |③---|
59
口口口④ |----|
口②③口 |①---|
口①口口 |②-③-|
口口口口 |--④-|
60
①口④口 |①---|
②口口口 |②---|
③口口口 |③---|
口口口口 |④---|
61
口口口口 |①---|
口口①口 |②---|
口③②口 |③---|
口④④口 |④---|
62
③口口③ |①---|
口口口口 |--②-|
②口口② |----|
①口口① |③---|
63
口口口口 |----|
口口口口 |----|
口②口② |①---|
①口①口 |②---|
64
③口③口 |①---|
①②①② |--②-|
口口口口 |----|
口口口口 |③---|
65
口口口口 |----|
口口口口 |----|
口口口口 |----|
口口口口 |----|
66
口口口口 |①---|
③②①④ |②---|
口口口口 |③---|
④③②① |--④-|
67
③①口口 |----|
口口②口 |----|
①③口口 |①---|
口口口口 |②-③-|
68
口口①③ |----|
口②口口 |----|
口口③① |①---|
口口口口 |②-③-|
69
③口口口 |----|
①口②④ |①---|
①③口④ |②-③-|
口口口口 |--④-|
70
④②口口 |----|
②④③口 |①---|
口口口口 |②---|
①口口口 |③-④-|
71
口口口口 |----|
口口口口 |①---|
③①③① |②---|
②口②口 |③---|
72
①①②口 |①---|
③口口② |----|
口口口口 |②---|
③口口口 |--③-|
73
口口口口 |----|
口口①口 |①---|
口口口口 |----|
口口①口 |----|
74
口口口口 |----|
②口①口 |----|
口口口口 |①---|
口②口① |--②-|
75
口口口口 |----|
口口④口 |①---|
③①口② |②---|
①口②④ |③-④-|
76
口口口口 |----|
口口口口 |----|
口口①② |①---|
①②口口 |②---|
77
口⑤④③ |①---|
口③①② |②---|
①②口口 |③---|
口口口口 |④-⑤-|
78
①口口口 |----|
口②①口 |----|
口口口② |①---|
口口口口 |②---|
79
口口口口 |①---|
①⑤④口 |②---|
③②①口 |③---|
口口③② |④-⑤-|
80
口口口口 |----|
口口口口 |----|
口①①口 |①---|
口②②口 |--②-|
81
口口口口 |----|
口口口口 |----|
口口口口 |----|
口口口口 |----|
82
口口口口 |----|
②口口② |----|
口口口口 |①---|
①口口① |--②-|
83
口口①③ |----|
口②口口 |----|
口口③① |①---|
口口口口 |②-③-|
84
③①口口 |----|
口口②口 |----|
①③口口 |①---|
口口口口 |②-③-|
85
口口①③ |----|
④②口口 |①---|
④口③① |②-③-|
口口口口 |--④-|
86
口口口④ |----|
口③口口 |①---|
口口④② |②---|
口口口① |③-④-|
87
口口口口 |----|
口口③③ |①---|
②②口口 |②---|
口①①口 |③---|
88
①①口② |①---|
口③③口 |----|
口口②口 |②---|
口口口口 |--③-|
89
口口口口 |----|
口口口口 |①---|
口口口口 |----|
①口口① |----|
90
①口①口 |----|
口口口口 |----|
口口口口 |①---|
口口口口 |----|
91
口口口口 |①---|
口口口口 |----|
①③①③ |②---|
②口②口 |③---|
92
③口③口 |①---|
①②①② |----|
口口口口 |②---|
口口口口 |③---|
93
口①口① |①---|
②口②口 |②---|
口③口③ |③---|
④口④口 |④---|
94
口口口口 |①---|
②口②口 |----|
①口①口 |②---|
口口口口 |----|
95
①①①① |①---|
口口口口 |----|
口口口口 |----|
口口口口 |----|
96
口口口口 |----|
口口口口 |----|
口口口口 |----|
口口口口 |----|
97
口口口口 |----|
口口口口 |----|
口口口口 |----|
口口口口 |----|
98
口口口口 |----|
口口口口 |----|
口口口口 |----|
口口口口 |----|
99
⑥⑤口⑦ |①-②-|
口③④口 |③-④-|
口①②口 |⑤---|
口口口口 |⑥-⑦-|
100
口口口口 |--①-|
①口口② |----|
口口口口 |②---|
口①②③ |--③-|
101
④口口⑤ |①---|
③口口口 |②---|
②口口口 |③---|
①口口口 |④-⑤-|
102
口②①口 |--①-|
口④③口 |②-③-|
口⑥⑤口 |④-⑤-|
口口⑦口 |⑥-⑦-|
103
口口口口 |①-②-|
③⑥⑦② |③-④-|
⑤口口④ |⑤---|
口①口口 |⑥-⑦-|
104
口口口口 |--①-|
口③口口 |----|
口②①口 |②---|
②口口① |--③-|
105
口口口① |①---|
口口口② |②---|
口口口③ |③---|
⑤口口④ |④-⑤-|
106
①口口口 |----|
口②③口 |①---|
口④⑤口 |②-③-|
口口口口 |④-⑤-|
107
口口口口 |----|
口口口① |--①-|
口口口② |②---|
口口口③ |③---|
108
口口口口 |----|
口口口口 |①---|
①口口口 |----|
口①口口 |----|
109
口口口口 |----|
口口口口 |----|
口口口口 |----|
口口口口 |----|
110
口口口口 |----|
口口口口 |----|
口口口口 |----|
口口口口 |----|
111
口口口口 |----|
口口口口 |----|
口口口口 |----|
口口口口 |----|
112
口口口口 |----|
口口口口 |----|
口口口口 |----|
口口口口 |----|
113
口口口口 |----|
口口口口 |----|
口口口口 |----|
口口口口 |----|
114
口口口口 |----|
口口口口 |----|
口口口口 |----|
口口口口 |----|
115
口口口口 |----|
口口口口 |----|
口口口口 |----|
口口口口 |----|
116
口口口口 |----|
口口口口 |----|
口口口口 |①---|
口口口① |----|

不確定度: 0

最終更新:2016年04月21日 01:29