Prophet Vibe
Sota Fujimori feat.Calin

EXTREME

Level: 9
BPM: 154
Notes: 739

1
口口口口 |----|
口口口口 |----|
口口口口 |----|
口口口口 |----|
2
口⑥⑦⑧ |①②③④|
①②口口 |⑤---|
⑤口③④ |--⑥⑦|
口口口口 |⑧---|
3
④⑤⑥口 |①②-③|
口口口① |----|
口②口口 |--④⑤|
口口③口 |⑥---|
4
口口口口 |①②③④|
①②口口 |⑤---|
⑤口③④
口口口口

口⑥⑦⑧
⑨⑩口口
口口口口 |--⑥⑦|
口口口口 |⑧-⑨⑩|
5
③④⑤口 |-①-②|
口口口口 |----|
口口口② |--③④|
口口口① |⑤---|
6
口口口口 |①-②③|
②③口口 |④⑤⑥⑦|
⑥⑦④⑤
口①①口

口口口口
⑨口⑧⑨
口口口口 |⑧---|
⑨口口⑨ |--⑨-|
7
④口⑤口 |----|
口⑥口口 |--①②|
口①②③ |③-④-|
口口口口 |⑤-⑥-|
8
口口口口 |①-②③|
②口④① |④-⑤-|
口③口口
口口⑤口

⑥口口口
口⑧口⑧
⑦口口口 |⑥-⑦-|
口口口口 |--⑧-|
9
⑥口口⑧ |----|
口口②口 |--①②|
口①口③ |③-④-|
⑤④④⑦ |⑤⑥⑦⑧|
10
口口口口 |--①②|
①②口口 |③④⑤⑥|
⑤⑥③④
口口口口

口口口口
⑧口⑦⑧
口口口口 |⑦---|
⑧口口⑧ |--⑧-|
11
③口④口 |----|
口⑤口口 |--①-|
②①①口 |②-③-|
口口口口 |④-⑤-|
12
口口口口 |①-②③|
②口④① |④-⑤-|
口③口口
口口⑤口

⑥口口口
口⑧口⑧
⑦口口口 |⑥-⑦-|
口口口口 |--⑧-|
13
口②①② |-①--|
口口③口 |--②-|
④②①② |--③④|
口⑤⑤口 |⑤---|
14
口③①口 |①---|
④②②① |--②-|
口⑤①口 |--③-|
口口口口 |④-⑤-|
15
口口口④ |--①-|
口②③口 |--②-|
①口②口 |--③-|
口①口口 |④---|
16
口⑤④口 |①---|
⑤②③④ |②-③-|
①①②口 |--④-|
口①口口 |--⑤-|
17
口口口口 |--①-|
口②⑤⑥ |--②-|
③④②① |③-④-|
口口①口 |⑤-⑥-|
18
口①口口 |①---|
①⑤口口 |--②-|
③④⑤② |--③-|
口③②口 |④-⑤-|
19
②口①① |--①-|
口口口① |--②-|
口口口④ |--③-|
口口③口 |④---|
20
口①③口 |①---|
②④②④ |②-③-|
⑤①③⑤ |--④-|
口口口口 |--⑤-|
21
①口口① |--①-|
口②②口 |--②-|
口③⑤口 |③-④-|
④②②⑥ |⑤-⑥-|
22
②③④口 |①-②③|
口⑤⑥⑦ |④⑤⑥⑦|
①口口①
口口口口

口口口⑪
⑧口口口
⑫口口⑪ |--⑧⑨|
口口⑨⑩ |⑩-⑪⑫|
23
口①口⑤ |--①②|
⑦口③② |--③④|
⑥①口⑤ |--⑤⑥|
口④③⑧ |--⑦⑧|
24
②③④口 |①-②③|
口⑤⑥⑦ |④⑤⑥⑦|
⑧⑨⑩口 |--⑧⑨|
①⑪⑫⑬ |⑩⑪⑫⑬|
25
口①口③ |①-②-|
①②③④ |③-④-|
口⑤口⑦ |⑤-⑥-|
⑤⑥⑦⑧ |⑦-⑧-|
26
②③④⑩ |①-②③|
⑪⑤⑥⑦ |④⑤⑥⑦|
①⑨口⑩ |--⑧-|
⑧口口口 |⑨-⑩⑪|
27
①口口⑧ |--①②|
⑥③⑤② |--③④|
①⑦口口 |--⑤⑥|
口③⑤④ |--⑦⑧|
28
②③④口 |①-②③|
口⑤⑥⑦ |④⑤⑥⑦|
⑧⑨⑩① |--⑧⑨|
口⑪⑫⑬ |⑩⑪⑫⑬|
29
①②③口 |--①②|
口④⑤⑥ |③④⑤⑥|
⑦⑧⑨口 |--⑦⑧|
口⑩⑪⑫ |⑨⑩⑪⑫|
30
①②③⑩ |--①②|
⑦④⑤⑥ |③④⑤⑥|
⑪口口⑩ |--⑦⑧|
口口⑧⑨ |⑨-⑩⑪|
31
口①口⑤ |--①②|
⑦口③② |--③④|
⑥①口⑤ |--⑤⑥|
口④③⑧ |--⑦⑧|
32
②③④口 |①-②③|
口⑤⑥⑦ |④⑤⑥⑦|
⑧⑨⑩口 |--⑧⑨|
①⑪⑫⑬ |⑩⑪⑫⑬|
33
①②③口 |--①②|
口④⑤⑥ |③④⑤⑥|
⑦⑧⑨口 |--⑦⑧|
口⑩⑪⑫ |⑨⑩⑪⑫|
34
①②③⑨ |--①②|
⑩④⑤⑥ |③④⑤⑥|
口⑧口⑨ |--⑦-|
⑦口口口 |⑧-⑨⑩|
35
①口口⑧ |--①②|
⑥③⑤② |--③④|
①⑦口口 |--⑤⑥|
口③⑤④ |--⑦⑧|
36
②③④口 |①-②③|
⑫⑤⑥⑦ |④⑤⑥⑦|
⑧⑨⑩① |--⑧⑨|
口⑪⑫⑬ |⑩⑪⑫⑬|
37
①口口② |--①-|
口②①口 |--②-|
口③④口 |--③④|
⑤口口⑤ |⑤---|
38
⑥③③⑥ |①-②-|
④⑤⑤④ |③---|
②④④② |④---|
口①①口 |⑤-⑥-|
39
⑤口口口 |--①-|
口④④口 |--②-|
⑤②②口 |③-④-|
③①①③ |--⑤-|
40
口④④② |①-②-|
①口口③ |③-④-|
口④④②
口口口口

⑥口口⑥
口⑤⑤口
口口口口 |--⑤-|
口口口口 |--⑥-|
41
口口④口 |①-②-|
①口口④ |③-④-|
⑥②③⑤ |--⑤-|
口⑥⑤⑤ |--⑥-|
42
①口口口 |①-②-|
口③②口 |③---|
口④④口 |④---|
⑥口口⑤ |⑤-⑥-|
43
①④④① |--①-|
②③③② |--②-|
①④④① |--③-|
口口口口 |--④-|
44
①口口③ |①-②-|
②口口④ |③-④-|
⑥口口口 |--⑤-|
口⑤⑤口 |--⑥-|
45
口口口口 |①-②-|
口口口④ |--③-|
口①②③ |----|
口口口④ |④---|
46
⑥③③⑥ |①-②-|
④⑤⑤④ |③---|
②④④② |④---|
口①①口 |⑤-⑥-|
47
④口口口 |--①-|
口③③口 |--②-|
④②②口 |--③-|
口①①口 |--④-|
48
口④④② |①-②-|
①口口③ |③-④-|
口④④②
口口口口

⑥口口⑥
口⑤⑤口
口口口口 |--⑤-|
口口口口 |--⑥-|
49
口口口口 |①-②-|
⑤口⑦① |③-④-|
⑤⑥⑦② |--⑤-|
口⑥④③ |⑥-⑦-|
50
①④③口 |①-②-|
口②口口 |③---|
口口口口 |④---|
⑥口口⑤ |⑤-⑥-|
51
①④④① |--①-|
②③③② |--②-|
①④④① |--③-|
口口口口 |--④-|
52
①⑥⑥③ |①-②-|
②口口④ |③-④-|
口口口口 |--⑤-|
口⑤⑤口 |--⑥-|
53
①口口② |①-②-|
口③④口 |--③-|
口④③口 |----|
②口口① |④---|
54
口⑥⑦⑧ |①②③④|
①②口口 |⑤---|
⑤口③④ |--⑥⑦|
口口口口 |⑧---|
55
④⑤⑥口 |①②-③|
口口口① |----|
口②口口 |--④⑤|
口口③口 |⑥---|
56
口口口口 |①②③④|
①②口口 |⑤---|
⑤口③④
口口口口

口⑥⑦⑧
⑨⑩口口
口口口口 |--⑥⑦|
口口口口 |⑧-⑨⑩|
57
⑦⑧⑨口 |-①②③|
口口口口 |④-⑤-|
⑤②②③ |⑥-⑦⑧|
⑥④④① |⑨---|
58
口口口口 |①-②③|
②③口口 |④⑤⑥⑦|
⑥⑦④⑤
口①①口

口口口口
⑨口⑧⑨
口口口口 |⑧---|
⑨口口⑨ |--⑨-|
59
④口⑤口 |----|
口⑥口口 |--①②|
口①②③ |③-④-|
口口口口 |⑤-⑥-|
60
口口口口 |①-②③|
②口④① |④-⑤-|
口③口口
口口⑤口

⑥口口口
口⑧口⑧
⑦口口口 |⑥-⑦-|
口口口口 |--⑧-|
61
⑥口口⑧ |----|
口口②口 |--①②|
口①口③ |③-④-|
⑤④④⑦ |⑤⑥⑦⑧|
62
口口口口 |--①②|
①②口口 |③④⑤⑥|
⑤⑥③④
口口口口

口口口口
⑧口⑦⑧
口口口口 |⑦---|
⑧口口⑧ |--⑧-|
63
③口④口 |----|
口⑤口口 |--①-|
②①①口 |②-③-|
口口口口 |④-⑤-|
64
口口口口 |①-②③|
②口④① |④-⑤-|
口③口口
口口⑤口

⑥口口口
口⑧口⑧
⑦口口口 |⑥-⑦-|
口口口口 |--⑧-|
65
口②①② |-①--|
口口③口 |--②-|
④②①② |--③④|
口⑤⑤口 |⑤---|
66
③口口④ |①-②-|
口口口口 |③④-⑤|
⑤②②口
①口口①

口口口口
⑦口口⑧
口口口⑥ |⑥-⑦⑧|
⑨口口⑩ |-⑨⑩-|
67
②口口③ |①②③-|
⑦④④⑦ |④-⑤-|
⑥①①⑥ |--⑥-|
口⑤⑤口 |⑦---|
68
②⑥口③ |①②③-|
口④④口 |④---|
⑤①①⑤ |⑤-⑥-|
⑦口口⑦ |⑦---|
69
①口口② |-①②-|
③口口④ |--③④|
⑤口口⑥ |----|
口口口口 |⑤⑥--|
70
②口口③ |①-②-|
口④④口 |-③--|
⑤①①⑥ |④⑤-⑥|
口⑦⑧口 |-⑦⑧-|
71
①口口② |-①②-|
口⑦⑧口 |-③④⑤|
③口口④ |⑥-⑦-|
⑤口口⑥ |-⑧--|
72
①口口② |-①②-|
口口口口 |-③--|
⑤③③⑥ |--④-|
口④④口 |-⑤⑥-|
73
口①①口 |①-②③|
②口口③ |----|
口口口口
口口口口

⑥口口⑦
⑧口口⑨
口④⑤口 |④⑤--|
口口口口 |⑥⑦⑧⑨|
74
⑤口④⑤ |①---|
口③口口 |②--③|
口②②口 |④---|
①⑥⑥① |⑤-⑥-|
75
口②③口 |①---|
口④⑤口 |②③④⑤|
口①①口
口口口口

口口口口
口口口口
口⑦⑦口 |--⑥-|
口⑥⑥口 |--⑦-|
76
口②①口 |①---|
①④③② |②---|
③口口④ |③---|
口口口口 |④---|
77
③口口④ |①-②-|
⑤口口⑥ |----|
⑦②②⑧ |③④--|
①口口① |⑤⑥⑦⑧|
78
口口口口 |①---|
口口口口 |----|
口口口口 |----|
口①①口 |----|


不确定度: 0

タグ:

+ タグ編集
  • タグ:

このサイトはreCAPTCHAによって保護されており、Googleの プライバシーポリシー利用規約 が適用されます。

最終更新:2012年11月10日 14:24