シュガーソングとビターステップ
UNISON SQUARE GARDEN

BASIC

Level: 3
BPM: 132
Notes: 272

1
口口口口 |----|
口口口口 |----|
口口口口 |----|
口口口口 |----|
2
口口口口 |----|
口口口口 |----|
口口口口 |----|
口口口口 |----|
3
口口口口 |①---|
口①口口 |----|
口口口口 |----|
口口口口 |----|
4
口口口口 |①---|
口口口口 |②---|
④③②① |③---|
口口口口 |④---|
5
口口口口 |①---|
口口①口 |----|
口口口口 |----|
口口口口 |----|
6
口口口口 |①---|
口口口口 |②---|
①②③④ |③---|
口口口口 |④---|
7
口口口口 |①---|
口②①口 |②---|
口④③口 |③---|
口口口口 |④---|
8
口口口口 |①---|
②口口① |②---|
④口口③ |③---|
口口口口 |④---|
9
口④口口 |①---|
口口③口 |②---|
口②口口 |③---|
口口①口 |④---|
10
口口口口 |①---|
①③③① |-②--|
②口口② |----|
口口口口 |③---|
11
口口口口 |①---|
口口口口 |②---|
④③②① |③---|
口口口口 |④---|
12
口口口口 |①---|
④③②① |②---|
口口口口 |③---|
口口口口 |④---|
13
口口口口 |①---|
口口口口 |②---|
④③②① |③---|
口口口口 |④---|
14
口口口口 |①---|
口①①口 |②---|
口②②口 |③---|
口③③口 |----|
15
④口口口 |①---|
③口口口 |②---|
②口口口 |③---|
①口口口 |④---|
16
口①口口 |①---|
口②口口 |②---|
口③口口 |③---|
口④口口 |④---|
17
口口④口 |①---|
口口③口 |②---|
口口②口 |③---|
口口①口 |④---|
18
口口口① |①---|
口口口② |②---|
口口口③ |③---|
口④④口 |④---|
19
④③③④ |①---|
口①①口 |②---|
口②②口 |③---|
口口口口 |④---|
20
口口口口 |①---|
①口口① |②---|
②口口② |③---|
③口口③ |----|
21
口口口口 |①---|
口②①口 |②---|
口④③口 |③---|
口口口口 |④---|
22
口口口口 |①---|
口口口口 |②---|
③口口③ |③---|
口②①口 |----|
23
口口口④ |①---|
口口口③ |②---|
口口口② |③---|
口口口① |④---|
24
口口①口 |①---|
口口②口 |②---|
口口③口 |③---|
口口④口 |④---|
25
口④口口 |①---|
口③口口 |②---|
口②口口 |③---|
口①口口 |④---|
26
①口口口 |①---|
②口口口 |②---|
③口口口 |③---|
口④④口 |④---|
27
④③③④ |①---|
口①①口 |②---|
口②②口 |③---|
口口口口 |④---|
28
口口口口 |①---|
①口口① |②---|
②口口② |③---|
③口口③ |----|
29
口口口口 |①---|
口②①口 |②---|
口④③口 |③---|
口口口口 |④---|
30
口口口口 |①---|
口口口口 |②---|
③口口③ |③---|
口②①口 |----|
31
口口口口 |①---|
口口①① |----|
口口②② |②---|
口口口口 |----|
32
口口口口 |①---|
①①口口 |----|
②②口口 |②---|
口口口口 |----|
33
口口①① |①---|
口口②② |②---|
口口③③ |③---|
口口④④ |④---|
34
①①口口 |①---|
②②口口 |②---|
③③口口 |③---|
④④口口 |④---|
35
口口口口 |①---|
口①①口 |----|
口口②口 |②---|
口口口口 |----|
36
口口口口 |①---|
口口口口 |----|
口①口口 |②---|
口口②口 |----|
37
口口口口 |①---|
口口③口 |②---|
口口②口 |③---|
口①口口 |----|
38
①口口① |①---|
口口口口 |----|
口③②口 |②---|
口口口口 |③---|
39
④口口口 |①---|
口③口口 |②---|
口口②口 |③---|
口口口① |④---|
40
口口口① |①---|
口口②口 |②---|
口③口口 |③---|
④口口口 |④---|
41
口口口口 |①---|
①②③④ |②---|
口口口口 |③---|
口口口口 |④---|
42
口口口口 |①---|
口口口口 |②---|
口①②口 |③---|
口③④口 |④---|
43
口口口④ |①---|
口口③口 |②---|
口②口口 |③---|
①口口口 |④---|
44
①口口口 |①---|
口②口口 |②---|
口口③口 |③---|
口口口④ |④---|
45
口口口口 |①---|
④③②① |②---|
口口口口 |③---|
口口口口 |④---|
46
口口口口 |①---|
口口口口 |②---|
口②①口 |③---|
口④③口 |④---|
47
口口口口 |①---|
口①①口 |----|
口②②口 |②---|
口口口口 |----|
48
①口口① |①---|
②口口② |②---|
③口口③ |③---|
④口口④ |④---|
49
口口口口 |①---|
④③②① |②---|
口口口口 |③---|
口口口口 |④---|
50
口④④口 |①---|
口③③口 |②---|
口②②口 |③---|
口①①口 |④---|
51
①口口口 |①---|
口②口口 |②---|
口口③口 |③---|
口口口④ |④---|
52
口口口④ |①---|
口口③口 |②---|
口②口口 |③---|
①口口口 |④---|
53
口口口口 |①---|
口①②口 |②---|
口③④口 |③---|
口口口口 |④---|
54
①口口① |①---|
②口口② |②---|
③口口③ |③---|
④口口④ |④---|
55
口口口① |①---|
口口②口 |②---|
口③口口 |③---|
④口口口 |④---|
56
④口口口 |①---|
口③口口 |②---|
口口②口 |③---|
口口口① |④---|
57
口口口口 |①---|
口口口口 |②---|
口④③口 |③---|
口②①口 |④---|
58
口④③口 |①---|
口②①口 |②---|
口口口口 |③---|
口口口口 |④---|
59
口口口口 |①---|
①口口① |----|
②口口② |②---|
口口口口 |----|
60
口①①口 |①---|
口②②口 |②---|
口③③口 |③---|
口④④口 |④---|
61
口口口口 |①---|
①口口① |----|
②口口② |②---|
口口口口 |----|
62
口口口口 |①---|
口②①口 |②---|
口④③口 |③---|
口口口口 |④---|

不確定度: 0

最終更新:2016年04月21日 01:28