シュガーソングとビターステップ
UNISON SQUARE GARDEN

ADVANCED

Level: 7
BPM: 132
Notes: 479

1
口口口口 |----|
口口口口 |----|
口口口口 |----|
口口口口 |----|
2
口口口口 |----|
口口口口 |----|
口口口口 |----|
口口口口 |----|
3
口⑦⑦口 |①-②-|
口口⑥③ |③-④-|
⑤口口② |⑤--⑥|
④口口① |-⑦--|
4
口口口口 |----|
口口口口 |----|
口口口口 |----|
口口口口 |----|
5
口⑦⑦口 |①-②-|
③⑥口口 |③-④-|
②口口⑤ |⑤--⑥|
①口口④ |-⑦--|
6
口口口口 |----|
口口口口 |----|
口口口口 |----|
口口口口 |----|
7
口⑦⑦口 |①-②-|
口口⑥③ |③-④-|
⑤口口② |⑤--⑥|
④口口① |-⑦--|
8
⑦口口⑦ |①-②-|
③⑥口口 |③-④-|
②口口⑤ |⑤--⑥|
①口口④ |--⑦-|
9
④口口④ |①---|
③口口③ |②---|
②口口② |③---|
①口口① |④---|
10
口口口口 |①---|
③①①③ |-②--|
口②②口 |----|
口口口口 |③---|
11
口口口④ |①-②-|
⑤口③口 |③--④|
⑥②口口 |--⑤-|
⑦口①口 |⑥-⑦-|
12
④口口口 |①-②-|
口③口⑤ |③--④|
口口②⑥ |--⑤-|
口①口⑦ |⑥-⑦-|
13
口口口④ |①-②-|
⑦口③口 |③--④|
⑥②口口 |--⑤-|
⑤口①口 |⑥-⑦-|
14
①①口口 |①---|
口②②口 |②---|
口口③③ |③---|
口口口口 |----|
15
口口口口 |--①-|
口③②① |②-③-|
口口口口
口口口口

口口口口
④口⑧口
口⑥⑤口 |④-⑤⑥|
口口⑦口 |-⑦-⑧|
16
③口口④ |--①-|
②⑤⑥⑦ |②-③-|
①口口口 |④-⑤⑥|
口口口口 |--⑦-|
17
⑥口⑤口 |①-②-|
口⑧⑦口 |③④-⑤|
口③④① |--⑥-|
口⑨口② |⑦⑧-⑨|
18
口口口口 |--①-|
口④③口 |②-③④|
②⑥⑦口 |----|
①口口⑤ |⑤-⑥⑦|
19
口口口④ |----|
⑤③②口 |①-②③|
①口口口 |----|
口口口口 |④-⑤-|
20
口⑥口口 |①-②-|
⑦口⑤口 |③-④-|
口④口① |⑤-⑥-|
②口③口 |--⑦-|
21
口口口口 |①-②-|
⑧①②③ |③-④⑤|
⑦④⑤口 |--⑥-|
⑥口口口 |⑦-⑧-|
22
①口口口 |①--②|
口②②口 |----|
口口口口 |----|
口口口口 |----|
23
口口⑥⑤ |①-②-|
口⑦⑧④ |③-④-|
⑤口口③ |⑤-⑥-|
①口⑨② |⑦⑧-⑨|
24
口口口口 |①-②-|
①口口④ |③-④-|
口口口③
口口口②

⑤口口⑤
口⑦⑥口
口口口口 |⑤-⑥⑦|
口口口⑧ |--⑧-|
25
口口⑩⑤ |①-②-|
口⑧⑨⑦ |③④-⑤|
⑥③④② |⑥-⑦-|
①口①口 |⑧⑨-⑩|
26
口口口② |①-②-|
①口⑤口 |③④-⑤|
口③④口
口口口口

⑥口口口
口口口口
口⑧⑨口 |⑥---|
口口口⑦ |⑦-⑧⑨|
27
口③④口 |①---|
口口口② |②-③④|
口口口口
①口口口

口口口⑥
口口口⑦
⑤口口口 |⑤---|
口口口口 |⑥-⑦-|
28
口口口口 |①-②-|
①口口口 |③-④-|
口口④①
口口③②

⑤口⑥口
口口⑤口
口口口口 |⑤-⑥-|
口口口⑦ |--⑦-|
29
口口口③ |①-②-|
口④⑤② |③-④⑤|
⑧口⑥① |-⑥-⑦|
①口⑦口 |-⑧--|
30
口④③② |①-②-|
口口口口 |-③--|
口⑤⑤口 |④-⑤-|
①口口口 |----|
31
口口口口 |①-②-|
口③④口 |③④--|
⑦口口② |⑤---|
⑥⑤⑤① |⑥-⑦-|
32
②口口口 |①-②-|
①④③口 |③④--|
口口口⑦ |⑤---|
口⑤⑤⑥ |⑥-⑦-|
33
①①②② |①-②-|
③③④④ |③-④-|
⑤⑤口口 |⑤-⑥⑦|
口⑦⑥⑧ |--⑧-|
34
①①②② |①-②-|
③③④④ |③-④-|
⑤⑤口口 |⑤-⑥⑦|
口⑦⑥⑧ |--⑧-|
35
⑤口口⑤ |①-②-|
口口口② |③④-⑤|
口③④① |----|
口口口口 |----|
36
口口口口 |----|
②口口① |--①-|
④口口③ |②-③-|
口口口⑤ |④-⑤-|
37
口口口口 |①-②③|
口口④口 |-④--|
口③②口
①口口口

⑤口口⑤
口口口口
口⑥口口 |⑤---|
口口口口 |--⑥-|
38
④⑥②⑧ |①-②-|
⑤③⑦① |③-④-|
口口口口 |⑤-⑥-|
口口口口 |⑦-⑧-|
39
口口④口 |①-②-|
口③口口 |③-④-|
口口②口
口①口口

口口口口
⑤口口⑥
口口口口 |⑤⑥-⑦|
⑧⑦⑦⑧ |--⑧-|
40
⑦⑤⑥口 |--①-|
口②口④ |②-③-|
①口③口 |④-⑤⑥|
口口口口 |--⑦-|
41
口口口④ |①-②-|
口①⑤口 |③-④-|
口⑥②⑧ |⑤-⑥-|
⑦口口③ |⑦-⑧-|
42
口③②口 |①-②-|
④口口① |③-④-|
⑤口口口 |⑤-⑥⑦|
⑦口口⑥ |----|
43
口④口口 |①-②-|
口口③口 |③-④-|
口②口口
口口①口

口口口口
⑥口口⑤
口口口口 |⑤⑥-⑦|
⑧⑦⑦⑧ |--⑧-|
44
口⑥⑤口 |--①-|
④口②口 |②-③-|
口③口① |④-⑤⑥|
口⑦口口 |--⑦-|
45
口口口口 |①-②-|
口③④② |③④-⑤|
⑤口①⑤
口口口口

⑨口口⑨
口口口口
口⑦⑧口 |--⑥-|
口口口⑥ |⑦⑧-⑨|
46
⑤口口口 |--①-|
⑥②③口 |②③-④|
⑦④④① |--⑤-|
口口口口 |⑥-⑦-|
47
③③②② |①---|
口口⑥⑥ |②---|
口口⑤⑤ |③--④|
①①④④ |-⑤-⑥|
48
口④③⑤ |--①-|
⑥②口口 |②-③④|
口①口⑦ |-⑤⑥⑦|
⑧口口口 |⑧---|
49
⑧④口口 |①-②-|
口口③⑦ |③④-⑤|
⑥②①口 |--⑥-|
⑤口口⑤ |⑦-⑧-|
50
口④④口 |①---|
口③③口 |②---|
口②②口 |③---|
口①①口 |④---|
51
口口口④ |①-②-|
③口口口 |③-④-|
口口口②
①口口口

口口口口
口⑤⑥口
口⑦⑦口 |⑤⑥-⑦|
⑧口口⑧ |--⑧-|
52
②口口④ |--①-|
⑦⑤⑥口 |②-③-|
口口口口 |④-⑤⑥|
口①③口 |--⑦-|
53
⑧①②口 |①-②-|
口口口③ |③-④-|
④口口⑦ |⑤-⑥-|
口⑤⑥口 |⑦-⑧-|
54
口口口① |①-②-|
④口口⑤ |③-④-|
口⑥⑦口 |⑤-⑥⑦|
②口口③ |----|
55
④口口口 |①-②-|
口口口③ |③-④-|
②口口口
口口口①

口口口口
口⑥⑤口
口⑦⑦口 |⑤⑥-⑦|
⑧口口⑧ |--⑧-|
56
口口口② |--①-|
口口口口 |②-③-|
口口口口
口③①口

④口口口
口⑥⑤口
口口口口 |④-⑤⑥|
口口⑦口 |--⑦-|
57
口口口口 |①-②-|
②④③口 |③④-⑤|
⑤①口⑤
口口口口

⑨口口⑨
口口口口
口⑧⑦口 |--⑥-|
⑥口口口 |⑦⑧-⑨|
58
口口口口 |--①-|
口③②口 |②③-④|
①④④口
口口口口

⑤口口口
⑥口口口
⑦口口口 |--⑤-|
口口口口 |⑥-⑦-|
59
③③②② |①---|
口口⑥⑥ |②---|
口口⑤⑤ |③--④|
①①④④ |-⑤-⑥|
60
口④③口 |--①-|
口②口口 |②-③④|
口①口口
口口口口

口口口⑤
⑥口口口
口⑨口⑦ |-⑤⑥⑦|
⑧口口口 |⑧-⑨-|
61
②②③③ |①---|
⑥⑥口口 |②---|
⑤⑤口口 |③--④|
④④①① |-⑤-⑥|
62
⑤③④口 |--①-|
口口②⑥ |②-③④|
⑦口①口 |-⑤⑥⑦|
口口口⑧ |⑧---|

不確定度: 0

最終更新:2016年04月21日 01:28