シュガーソングとビターステップ
UNISON SQUARE GARDEN

EXTREME

Level: 9
BPM: 132
Notes: 712

1
口口口口 |----|
口口口口 |----|
口口口口 |----|
口口口口 |----|
2
口口口口 |----|
口口口口 |----|
口口口口 |----|
口口口口 |----|
3
④⑩⑧⑨ |①②③-|
⑩⑦③口 |④-⑤⑥|
口②⑥口 |⑦⑧-⑨|
口⑤①口 |-⑩--|
4
口口口口 |----|
口口口口 |----|
口口口口 |----|
口口口口 |----|
5
⑨⑧⑩④ |①②③-|
口③⑦⑩ |④-⑤⑥|
口⑥②口 |⑦⑧-⑨|
口①⑤口 |-⑩--|
6
口口口口 |----|
口口口口 |----|
口口口口 |----|
口口口口 |----|
7
④⑩⑧⑨ |①②③-|
⑩⑦③口 |④-⑤⑥|
口②⑥口 |⑦⑧-⑨|
①⑤①口 |-⑩--|
8
④口口⑤ |①②③-|
口③口口 |④-⑤-|
口口②⑤
口①口①

口⑥⑦口
⑧⑨⑪⑩
口口口口 |⑥⑦-⑧|
口口口口 |⑨⑩⑪-|
9
④④④④ |①---|
口③③③ |②---|
②②②口 |③---|
口①①① |④---|
10
口口口口 |①②③④|
口⑥⑤口 |-⑤⑥⑦|
②口⑦①
④口口③

⑬⑬⑬⑨
口口口⑩
口⑧口⑪ |⑧---⑨⑩⑪⑫|
口口口⑫ |⑬---|
11
⑥⑥⑥⑥ |①-②③|
④口口⑤ |④⑤-⑥|
口②③口
口①①口

口口口口
口⑦⑦口
⑧口口⑧ |--⑦-|
口⑨⑨口 |⑧-⑨-|
12
⑦⑦⑦⑦ |①②③④|
⑥⑧⑧⑤ |⑤⑥-⑦|
⑨④③⑨ |--⑧-|
②⑩⑩① |⑨-⑩-|
13
口⑥⑤口 |①②③④|
④⑨⑩③ |⑤⑥-⑦|
⑩②①⑨ |--⑧-|
⑦⑧⑧⑦ |⑨-⑩-|
14
口①②② |①---|
①口口① |②---|
口口①口
②②口口

③口口口
④口③口
口③口口 |③---|
口口口③ |④---|
15
口⑨⑨⑤ |①-②-|
口口口④ |③-④-|
口⑦⑥③ |⑤-⑥⑦|
①⑧⑧② |-⑧-⑨|
16
口口口② |--①-|
口口口口 |②-③-|
口口口口
③口口①

④口口口
口⑥⑤口
口口口口 |④-⑤⑥|
口口口⑦ |--⑦-|
17
⑥⑥⑨⑨ |①-②-|
口⑧⑦② |③④-⑤|
口④③① |--⑥-|
口⑤⑤口 |⑦⑧-⑨|
18
口⑧⑦口 |--①-|
⑧口口⑦ |②-③④|
②口⑤① |⑤---|
⑥④③口 |⑥-⑦⑧|
19
①④口④ |----|
⑤口⑤口 |①-②③|
③口口② |----|
口③②口 |④-⑤-|
20
③口③口 |①-②-|
口口口口 |③-④-|
口②口②
①④①④

口⑤口⑤
口口口口
⑥口⑥⑦ |⑤-⑥-|
口口口口 |--⑦-|
21
口口口口 |①-②-|
口⑤④口 |③-④⑤|
口②口口
③口①口

口口口口
口口口口
口⑧口⑥ |--⑥-|
口口⑦口 |⑦-⑧-|
22
口口④② |①-②③|
口③②④ |-④--|
口口⑤⑤ |⑤--⑥|
①口⑥⑥ |----|
23
口口口口 |①-②-|
口口口④ |③-④-|
口口③②
①①口口

⑤⑤口⑩
⑨口⑤口
⑦口口⑧ |⑤-⑥⑦|
口口口⑥ |⑧⑨-⑩|
24
口口口口 |①-②-|
口口③② |③-④-|
口④口口
①①口口

⑤⑤口口
口口口⑧
⑤口⑦⑥ |⑤-⑥⑦|
口口口口 |--⑧-|
25
口口⑤② |①-②-|
口口①口 |③④-⑤|
口③④口
①①口口

⑥⑥口口
口⑨⑧口
口口口⑦ |⑥-⑦-|
口口口⑩ |⑧⑨-⑩|
26
口口⑤② |①-②-|
口口口口 |③④-⑤|
口③④口
①①口口

⑥⑥口⑦
口口⑨口
口口口⑧ |⑥---|
口口口口 |⑦-⑧⑨|
27
⑤⑤④⑥ |①---|
口口⑦③ |②-③④|
口口口口 |⑤---|
①①口② |⑥-⑦-|
28
口口口口 |①-②-|
口口口口 |③-④-|
口口④①
①①②③

⑤⑤⑥口
口口口⑤
口口口口 |⑤-⑥-|
口口口⑦ |--⑦-|
29
口口口口 |①-②-|
口③④② |③④⑤⑥|
口⑤⑥①
①①口口

口口口口
口口口口
口口口⑧ |-⑦-⑧|
口⑨⑩⑦ |-⑨⑩-|
30
口④③② |①-②-|
口④③② |-③--|
①口口口 |④-⑤-|
⑤⑤⑤⑤ |----|
31
②口口① |①-②-|
④②①③ |③④--|
口⑥⑦口 |⑤---|
④⑤⑤③ |⑥-⑦-|
32
①口口② |①-②-|
③①②④ |③④--|
口口口口
③口口④

⑥口口⑥
口口口口
口⑦⑦口 |⑤---|
口⑤⑤口 |⑥-⑦-|
33
口②①口 |①-②-|
①④③② |③-④-|
③⑧⑧④ |⑤-⑥⑦|
⑤⑦⑥⑤ |--⑧-|
34
口①②口 |①-②-|
②③④① |③-④-|
④⑤⑤③ |⑤-⑥⑦|
口⑦⑥⑧ |--⑧-|
35
口⑤口口 |①-②-|
⑤③④② |③④-⑤|
口口口① |----|
⑥口口口 |⑥---|
36
口口口口 |①---|
⑥口④⑦ |②-③-|
口⑤口③ |④-⑤-|
口①②口 |⑥-⑦-|
37
口④④口 |①-②③|
口口口口 |-④--|
口口①口
口②③口

口口口口
口口口口
口口口口 |⑤---|
⑤⑥口⑤ |--⑥-|
38
⑤③⑦① |①-②-|
③⑤①⑦ |③-④-|
⑥④⑧② |⑤-⑥-|
④⑥②⑧ |⑦-⑧-|
39
④口⑤口 |①②③-|
口口③口 |④-⑤-|
口②口口
口口①口

口口口口
⑥口⑨⑦
⑧⑨口⑧ |⑥⑦-⑧|
口⑧⑧口 |--⑨-|
40
①口③① |--①-|
口④口口 |②-③④|
口口口口
②口口②

口口口口
⑥口口口
口口⑤⑦ |⑤-⑥⑦|
⑧⑥口⑧ |--⑧-|
41
口①口① |①-②-|
口口口口 |③-④-|
②④②④
口③③口

口⑦口口
⑤⑧⑤⑦
口口口口 |⑤-⑥-|
⑥⑧口⑥ |⑦-⑧-|
42
①口①② |①-②-|
③口③⑥ |③-④-|
⑤口④⑦ |⑤-⑥⑦|
⑧口口⑤ |⑧---|
43
口口④口 |①-②-|
口③口口 |③-④-|
口口②口
口①口口

口口口口
⑤⑧口⑥
⑦口⑧⑦ |⑤⑥-⑦|
口⑦⑦口 |--⑧-|
44
口口口口 |--①-|
①口③口 |②-③-|
口②口口
口口口口

⑤⑦口口
⑦口口⑥
⑤口口④ |④-⑤⑥|
口口口⑥ |--⑦-|
45
口口口口 |①-②-|
口②①口 |③④-⑤|
口④③⑤
口口⑤口

口口⑨口
口⑧⑦⑨
⑥口口口 |--⑥-|
口⑥口口 |⑦⑧-⑨|
46
口①口口 |--①-|
①口口口 |②③-④|
口③②④
口口④口

⑤口⑤口
口⑥口⑥
⑦口⑦口 |--⑤-|
口口口口 |⑥-⑦-|
47
②口②口 |①---|
口口①口 |②---|
口②口口
口①口①

口口口③
③⑥口⑥
⑤口⑤③ |③--④|
③④口④ |-⑤-⑥|
48
⑨⑤④口 |--①②|
口口③⑧ |③-④⑤|
⑦②口口 |-⑥⑦⑧|
口口①⑥ |⑨---|
49
口口①口 |①②③④|
口②⑤口 |⑤⑥-⑦|
口⑥③⑦
口④⑦口

⑩⑩⑩口
⑨⑨口口
⑧口口口 |--⑧-|
口口口口 |⑨-⑩-|
50
④④④④ |①---|
③③③③ |②---|
②②②口 |③---|
①①口口 |④---|
51
⑧⑤口⑧ |①②③-|
⑦口④⑥ |④-⑤-|
⑧③口⑧ |⑥⑦-⑧|
⑨①②⑨ |--⑨-|
52
口①①③ |--①-|
④口口口 |②-③④|
口口口口
口②②口

口口口口
口⑥⑦口
口口口⑤ |⑤-⑥⑦|
⑥⑧⑧⑦ |--⑧-|
53
口①口口 |①-②-|
口口口① |③-④-|
②③②③
④口口④

口口口口
⑤口⑤⑧
⑦口⑦口 |⑤-⑥-|
口⑥⑥口 |⑦-⑧-|
54
①③①② |①-②-|
③①③⑥ |③-④-|
⑤⑧④⑦ |⑤-⑥⑦|
⑧⑤口⑤ |⑧---|
55
口口口口 |①-②-|
口①②口 |③-④-|
口口口口
口③④口

⑦口⑧⑦
⑤⑧口⑥
⑦口⑧⑦ |⑤⑥-⑦|
口⑧口口 |--⑧-|
56
口①口口 |--①-|
①口③口 |②-③-|
口②口口
口口口口

⑦⑦⑥口
⑦口口⑥
⑤口口④ |④-⑤⑥|
口⑤④口 |--⑦-|
57
口口口口 |①-②-|
口②①口 |③④-⑤|
口④③⑤
口口⑤⑤

口口⑨⑨
口⑧⑦⑨
⑥口口口 |--⑥-|
⑥⑥口口 |⑦⑧-⑨|
58
口①口口 |--①-|
①口口口 |②③-④|
口③②④
口口④口

⑤口⑤口
口⑥口⑥
⑦口⑦口 |--⑤-|
口口口口 |⑥-⑦-|
59
②②②口 |①---|
口口①口 |②---|
口②口口
口①口①

口口口③
③⑥口⑥
⑤口⑤③ |③--④|
③④口④ |-⑤-⑥|
60
口⑤④口 |--①②|
口口③口 |③-④⑤|
口②口口
口口①口

⑦口口⑥
口口口口
⑨⑩口⑧ |-⑥⑦⑧|
口口口口 |⑨-⑩-|
61
口口口口 |①---|
口②①② |②---|
口口②口
①①①②

口③③③
⑥口⑥口
⑤③口⑤ |③--④|
④口④口 |-⑤-⑥|
62
⑧④⑤⑧ |--①②|
口③口口 |③-④⑤|
⑧口②⑧ |-⑥⑦-|
⑥①口⑦ |⑧---|

不確定度: 0

最終更新:2016年04月21日 01:28