マジLOVEレボリューションズ
ST☆RISH

BASIC

Level: 3
BPM: 140
Notes: 184

1
口口口口 |----|
口口口口 |----|
口口口口 |----|
口口口口 |----|
2
口口口口 |①---|
口②①口 |----|
口②①口 |②---|
口口口口 |----|
3
口口口口 |①---|
②口口① |----|
②口口① |②---|
口口口口 |----|
4
口口口口 |①---|
口口口口 |②---|
口④③口 |③---|
口②①口 |④---|
5
口口口口 |①---|
口口①口 |----|
口口口口 |----|
口口口口 |----|
6
口①②口 |①---|
口③④口 |②---|
口口口口 |③---|
口口口口 |④---|
7
口口口口 |①---|
口口口口 |----|
口①①口 |----|
口口口口 |----|
8
口口口口 |①---|
口口口口 |----|
口口口口 |----|
口①①口 |----|
9
口口口口 |①---|
口③③口 |②---|
②口口口 |③---|
①口口口 |----|
10
口口口口 |①---|
口③③口 |②---|
口口口② |③---|
口口口① |----|
11
口口口口 |①---|
口③③口 |②---|
口②口口 |③---|
口①口口 |----|
12
口口口口 |①---|
口③③口 |②---|
口口②口 |③---|
口口①口 |----|
13
口①口口 |①---|
口②口口 |②---|
口③③口 |③---|
口口口口 |----|
14
口口①口 |①---|
口口②口 |②---|
口③③口 |③---|
口口口口 |----|
15
①口口口 |①---|
②口口口 |②---|
口③③口 |③---|
口口口口 |----|
16
口口口口 |①---|
口口口口 |②---|
口④③口 |③---|
口②①口 |④---|
17
口口口口 |①---|
口口①口 |----|
口口口口 |----|
口口口口 |----|
18
口口口口 |①---|
口①口口 |----|
口口口口 |----|
口口口口 |----|
19
口口口口 |①---|
口口口口 |②---|
①②③④ |③---|
口口口口 |④---|
20
口口口口 |①---|
④③②① |②---|
口口口口 |③---|
口口口口 |④---|
21
口口口口 |①---|
口口口口 |----|
口口①口 |----|
口口口口 |----|
22
口口口口 |①---|
口口口口 |----|
口①口口 |----|
口口口口 |----|
23
口口口口 |①---|
①②③④ |②---|
口口口口 |③---|
口口口口 |④---|
24
口口口口 |①---|
口口口口 |②---|
④③②① |③---|
口口口口 |④---|
25
口②口口 |①---|
①口口口 |----|
口口口口 |②---|
口口口口 |----|
26
口口①口 |①---|
口口口② |----|
口口口口 |②---|
口口口口 |----|
27
口口口口 |①---|
口口口口 |----|
口口口① |②---|
口口②口 |----|
28
口口口口 |①---|
口口口口 |----|
②口口口 |②---|
口①口口 |----|
29
口口口口 |①---|
口③②口 |②---|
口④①口 |③---|
口口口口 |④---|
30
口口口口 |①---|
③口口② |②---|
④口口① |③---|
口口口口 |④---|
31
口口口口 |①---|
口口口口 |②---|
口④③口 |③---|
口②①口 |④---|
32
口④③口 |①---|
口②①口 |②---|
口口口口 |③---|
口口口口 |④---|
33
①口口① |①---|
②口口② |----|
口口口口 |②---|
口口口口 |----|
34
口口口口 |①---|
口口口口 |----|
②口口② |②---|
①口口① |----|
35
口口口口 |①---|
口口口口 |②---|
口④③口 |③---|
口②①口 |④---|
36
口④③口 |①---|
口②①口 |②---|
口口口口 |③---|
口口口口 |④---|
37
口口口口 |----|
口口口口 |----|
①①①① |①---|
口口口口 |----|
38
②②②② |①---|
①①①① |----|
口口口口 |②---|
口口口口 |----|
39
口口口口 |①---|
④②口③ |②---|
④口①③ |③---|
口口口口 |④---|
40
口口口口 |①---|
③口②④ |②---|
③①口④ |③---|
口口口口 |④---|
41
口口④口 |①---|
口③口口 |②---|
口口②口 |③---|
口①口口 |④---|
42
口①口口 |①---|
口口②口 |②---|
口③口口 |③---|
口口④口 |④---|
43
口口口口 |①---|
④②口③ |②---|
④口①③ |③---|
口口口口 |④---|
44
口口口口 |①---|
③口②④ |②---|
③①口④ |③---|
口口口口 |④---|
45
口口④口 |①---|
口③口口 |②---|
口口②口 |③---|
口①口口 |④---|
46
口①口口 |①---|
口口②口 |②---|
口③口口 |③---|
口口④口 |④---|
47
口口口口 |①---|
口口口口 |②---|
④③②① |③---|
口口口口 |④---|
48
口口口口 |①---|
④③②① |②---|
口口口口 |③---|
口口口口 |④---|
49
口口口口 |①---|
口口口口 |②---|
口④③口 |③---|
口②①口 |④---|
50
口口口口 |①---|
口口①口 |----|
口口口口 |----|
口口口口 |----|
51
口①②口 |①---|
口③④口 |②---|
口口口口 |③---|
口口口口 |④---|
52
口口口口 |①---|
口口口口 |----|
口①①口 |----|
口口口口 |----|

不確定度: 0

最終更新:2016年04月21日 01:21