マジLOVEレボリューションズ
ST☆RISH

ADVANCED

Level: 6
BPM: 140
Notes: 333

1
口口口口 |----|
口口口口 |----|
口口口口 |----|
口口口口 |----|
2
口口口口 |①---|
口①①口 |----|
口①①口 |----|
口口口口 |----|
3
口口口口 |①---|
①口口① |----|
①口口① |----|
口口口口 |----|
4
口口口口 |①---|
口口口口 |②---|
④口口③ |③---|
②口口① |④---|
5
口口口口 |①---|
口口口① |----|
口口口口 |----|
口口口口 |----|
6
①口口① |①---|
②口口② |②---|
③口口③ |③---|
④口口④ |④---|
7
口口口口 |①---|
口①①口 |----|
口①①口 |----|
口口口口 |----|
8
口口口口 |----|
口口口口 |----|
口口口口 |----|
口口口口 |----|
9
口口口口 |①---|
口②口口 |--②-|
口②口② |----|
①②②① |----|
10
①口口① |①---|
口②口口 |--②-|
口②口② |----|
口②②口 |----|
11
口口口口 |①---|
口②口口 |--②-|
口②口② |----|
①②②① |----|
12
①口口① |①---|
口②口口 |--②-|
口②口② |----|
口②②口 |----|
13
口口口口 |①---|
口②口口 |--②-|
口②口② |----|
①②②① |----|
14
①口口① |①---|
口②口口 |--②-|
口②口② |----|
口②②口 |----|
15
口口口口 |①---|
口②口口 |--②-|
口②口② |----|
①②②① |----|
16
④口口③ |①---|
口②①口 |②---|
口①②口 |③---|
③口口④ |④---|
17
口口口⑦ |--①-|
口⑥③口 |②-③-|
口⑤②口 |④-⑤-|
口④①口 |⑥-⑦-|
18
口④口口 |--①-|
口⑥⑤口 |②-③-|
①②③口 |--④-|
口口口口 |⑤-⑥-|
19
口口①① |----|
口④③口 |①---|
②②口口 |②---|
口口口口 |③-④-|
20
⑤⑤口① |--①-|
口口口② |②-③-|
④④口③ |④---|
口口口口 |⑤---|
21
口口口⑦ |--①-|
口⑥③口 |②-③-|
口⑤②口 |④-⑤-|
口④①口 |⑥-⑦-|
22
口④口口 |--①-|
口⑥⑤口 |②-③-|
①②③口 |--④-|
口口口口 |⑤-⑥-|
23
口口①① |----|
口④③口 |①---|
②②口口 |②---|
口口口口 |③-④-|
24
口口口① |--①-|
口口口② |②-③-|
口⑥口③ |--④-|
口④⑤口 |⑤-⑥-|
25
口口①① |①--②|
②②口口 |--③-|
口⑥③③ |--④-|
口④⑤口 |⑤-⑥-|
26
②②③③ |--①-|
④⑤⑥① |②--③|
口口口口 |--④-|
口口口口 |⑤-⑥-|
27
口口口口 |--①-|
口口口口 |②-③-|
口③②①
口口口口

口口④口
口⑤口口
口口⑥口 |--④-|
口口口口 |⑤-⑥-|
28
①口口口 |--①-|
口口口② |②-③-|
③口口口 |④---|
口口口④ |----|
29
⑦⑦口口 |①-②-|
①③⑤口 |③-④-|
②④⑥口 |⑤-⑥-|
口口口口 |--⑦-|
30
口口⑦⑦ |--①-|
口⑤③① |②-③-|
口⑥④② |④-⑤-|
口口口口 |⑥-⑦-|
31
⑦⑦口口 |--①-|
①③⑤口 |②-③-|
②④⑥口 |④-⑤-|
口口口口 |⑥-⑦-|
32
口口⑦⑦ |--①-|
口⑤③① |②-③-|
口⑥④② |④-⑤-|
口口口口 |⑥-⑦-|
33
①口⑥⑥ |--①-|
②口⑤⑤ |②-③-|
③口④④ |--④-|
口口口口 |⑤-⑥-|
34
①口⑥⑥ |--①-|
②口⑤⑤ |②-③-|
③口④④ |--④-|
口口口口 |⑤-⑥-|
35
口⑦口口 |--①-|
口①⑥口 |②-③-|
口⑤②口 |④-⑤-|
口③④口 |⑥-⑦-|
36
①口口① |--①-|
②口口② |②-③-|
③口口③ |④---|
④口口④ |----|
37
口口口口 |----|
口口口口 |----|
①①①① |①---|
口口口口 |----|
38
②②②② |①---|
①①①① |----|
口口口口 |②---|
口口口口 |----|
39
⑤口口④ |①-②-|
口口口⑥ |③---|
①②③口 |④--⑤|
④口口⑤ |--⑥-|
40
④口口⑤ |--①-|
口口口口 |②-③-|
口①②口 |④--⑤|
⑤③口④ |----|
41
④④口口 |①-②-|
口口③口 |③-④-|
口②①口
口口口口

口口⑦⑦
口⑥口口
口口⑤口 |--⑤-|
口口口口 |⑥-⑦-|
42
口口口口 |--①-|
①③③② |②--③|
口③③口 |----|
口口口口 |----|
43
⑤口口④ |①-②-|
口口口⑥ |③---|
①②③口 |④--⑤|
④口口⑤ |--⑥-|
44
④口口⑤ |--①-|
口口口口 |②-③-|
口①②口 |④--⑤|
⑤③口④ |----|
45
④④口口 |①-②-|
口口③口 |③-④-|
口②①口
口口口口

口口⑦⑦
口⑥口口
口口⑤口 |--⑤-|
口口口口 |⑥-⑦-|
46
口⑤⑤口 |--①-|
①口口② |②-③-|
③口口④ |④---|
口口口口 |⑤---|
47
口④④口 |①---|
口③③口 |②---|
口②②口 |③---|
口①①口 |④---|
48
④口口④ |①---|
③口口③ |②---|
②口口② |③---|
①口口① |④---|
49
口⑧⑦口 |①-②-|
口⑥⑤口 |③-④-|
口④③口 |⑤-⑥-|
口②①口 |⑦-⑧-|
50
口口口① |①---|
口口口口 |----|
口口口口 |----|
口口口口 |----|
51
②口口① |①-②-|
④⑧⑧③ |③-④-|
⑥⑧⑧⑤ |⑤-⑥-|
口口口⑦ |⑦--⑧|

不確定度: 0

最終更新:2016年04月21日 01:13