マジLOVEレボリューションズ
ST☆RISH

EXTREME

Level: 9
BPM: 140
Notes: 484

1
口口口口 |----|
口口口口 |----|
口口口口 |----|
口口口口 |----|
2
⑦⑦①① |①--②|
口⑥①② |--③④|
④⑤②① |-⑤⑥-|
③②①① |⑦---|
3
口口①① |①--②|
④口②① |--③④|
③②①口
②口①①

口⑦⑦口
口口口⑥
口口口⑤ |-⑤⑥-|
口口口口 |⑦---|
4
口口口口 |①-②-|
口①口口 |③-④-|
③①口④
口②②口

口⑦⑧口
⑤口口⑥
口⑨口口 |⑤-⑥-|
口口口口 |⑦-⑧⑨|
5
口口口口 |----|
口口口口 |----|
口口口口 |----|
口口口口 |----|
6
④⑤口③ |①-②-|
⑦⑤⑨⑥ |③-④-|
口⑤⑧⑤ |⑤-⑥-|
②⑤⑤① |⑦-⑧⑨|
7
①口口② |①--②|
口口口口 |--③-|
口口口口 |④---|
口③④口 |----|
8
口口口口 |----|
口口口口 |----|
口口口口 |----|
口口口口 |----|
9
①⑥口② |①②③④|
③⑥口④ |⑤-⑥-|
⑤⑥口⑥ |----|
口⑥⑥口 |----|
10
④⑥口⑤ |①②③④|
口⑥口③ |⑤-⑥-|
②⑥口⑥ |----|
口⑥⑥① |----|
11
②⑥口① |①②③④|
④⑥口③ |⑤-⑥-|
口⑥口⑥ |----|
口⑥⑥⑤ |----|
12
③④口口 |①②③-|
口④口口 |--④-|
口④口④ |----|
①④④② |----|
13
②⑥①口 |①②③④|
④⑥③口 |⑤--⑥|
口⑥⑤⑥ |----|
口⑥⑥口 |----|
14
⑤⑥口口 |①②③④|
③⑥④口 |⑤--⑥|
①⑥②⑥ |----|
口⑥⑥口 |----|
15
口⑤①口 |①②③④|
②⑤口口 |---⑤|
口⑤③⑤ |----|
④⑤⑤口 |----|
16
②④④① |①---|
口④口③ |②---|
③口④口 |③-④-|
①④④② |----|
17
口口⑤⑥ |--①-|
①口①口 |②-③-|
②②②④ |④-⑤⑥|
⑦③口⑦ |--⑦-|
18
③口口③ |--①-|
口②①口 |②-③-|
口④⑤口 |--④-|
口⑥口口 |⑤-⑥-|
19
①①口④ |----|
①①③口 |①---|
口③②② |②---|
④口②② |③-④-|
20
口④⑤口 |--①-|
⑤①口④ |②-③-|
④③②⑤ |④---|
口⑤④口 |⑤---|
21
①口⑤口 |--①-|
口②口口 |②-③-|
③⑥口⑦ |④-⑤⑥|
口④⑦口 |--⑦-|
22
③④④③ |--①-|
口⑤⑤口 |②-③-|
①⑥⑥口 |--④-|
②①口② |⑤-⑥-|
23
③口口口 |----|
①④②② |①---|
①口②② |②---|
①①②口 |③-④-|
24
口口口① |--①-|
④口②口 |②-③-|
⑤③③口 |--④-|
口⑥口口 |⑤-⑥-|
25
口①①口 |①--②|
口②②④ |--③-|
口③③⑤ |--④-|
口口⑥口 |⑤-⑥-|
26
④①口④ |--①-|
⑦③②口 |②③-④|
⑥口口口 |--⑤-|
⑤口口口 |⑥-⑦-|
27
④口口口 |--①-|
⑤口口③ |②-③-|
⑥口口② |--④-|
口口口① |⑤-⑥-|
28
口口口① |--①-|
口口口② |②-③④|
口口口③ |----|
口口④⑤ |--⑤-|
29
口口口口 |①-②-|
口口①② |③-④-|
口口③④
口口口口

⑧⑧口⑦
口口⑥口
口口口口 |⑤-⑥⑦|
口口⑤口 |--⑧-|
30
⑥口⑦⑦ |--①-|
口⑤口口 |②-③-|
④③口口 |④-⑤⑥|
②①口口 |--⑦-|
31
⑦⑦口⑥ |--①-|
口口⑤口 |②-③-|
口口②④ |④-⑤⑥|
口口①③ |--⑦-|
32
⑥口口口 |--①-|
①⑤口口 |②-③-|
③②口口 |④-⑤⑥|
⑦④口⑦ |--⑦-|
33
⑤②②④ |--①-|
口③③口 |②-③-|
⑤①①④ |--④-|
⑥口口⑥ |⑤-⑥-|
34
口③③口 |--①-|
口②②口 |②-③-|
口①①口
口口口口

④口口⑤
⑥⑥⑥⑥
④口口⑤ |--④-|
口口口口 |⑤-⑥-|
35
⑦口口⑥ |--①-|
口口口口 |②-③-|
⑤①口④ |④-⑤-|
口③②口 |⑥-⑦-|
36
口口口口 |--①-|
④口口③ |②-③④|
④①①③ |----|
口②②口 |----|
37
口口口口 |----|
口口口口 |----|
①①①① |①---|
口口口口 |----|
38
②②②② |①---|
①①①① |----|
口口口口 |②---|
口口口口 |----|
39
③口口口 |①-②-|
②③口口 |③---|
①②口口
口①口口

口口④④
口口④⑤
口⑥⑤④ |④--⑤|
⑥⑤④④ |--⑥-|
40
口②③③ |--①-|
②①⑤③ |②-③-|
①⑤④口 |④--⑤|
⑤口④④ |----|
41
②⑦口① |①-②-|
口⑦口口 |③-④-|
⑥⑦⑤⑦ |--⑤-|
④⑦⑦③ |⑥-⑦-|
42
④口口④ |--①-|
口口③口 |②③-④|
口口②口
①口口口

口口口口
口口口口
口口口口 |----|
⑥口口⑤ |--⑤⑥|
43
③口口口 |①-②-|
②③口口 |③---|
①②口口
口①口口

口口④④
口口④⑤
口⑥⑤④ |④--⑤|
⑥⑤④④ |--⑥-|
44
口②③③ |--①-|
②①⑤③ |②-③-|
①⑤④口 |④--⑤|
⑤口④④ |----|
45
⑥⑦⑦⑤ |①-②-|
④⑥⑤③ |③-④-|
②⑦⑦① |--⑤-|
口口口口 |⑥-⑦-|
46
⑤口口口 |--①-|
②口③口 |②-③-|
口④口① |④---|
口口口⑤ |⑤---|
47
⑨口口⑨ |①②-③|
④⑧⑥② |④-⑤⑥|
③⑦⑤① |-⑦⑧-|
口口口口 |⑨---|
48
⑨口口⑨ |①②-③|
⑧④⑥② |④-⑤⑥|
⑦③⑤① |-⑦⑧-|
口口口口 |⑨---|
49
口口口口 |①-②-|
口①口口 |③-④-|
③①口④
口②②口

口⑦⑧口
⑤口口⑥
口⑨口口 |⑤-⑥-|
口口口口 |⑦-⑧⑨|
50
口口口口 |----|
口口口口 |----|
口口口口 |----|
口口口口 |----|
51
④⑤口③ |①-②-|
⑦⑤⑨⑥ |③-④-|
口⑤⑧⑤ |⑤-⑥-|
②⑤⑤① |⑦-⑧⑨|
52
①口口② |①--②|
口口口口 |--③-|
口口口口 |④---|
口③④口 |----|

不確定度: 0

最終更新:2016年04月21日 01:12