恋をしたい、もう一度
デッドボールP feat.GUMI

BASIC

Level: 2
BPM: 145
Notes: 221

1
口口口口 |----|
口口口口 |----|
口口口口 |①---|
口①①口 |----|
2
口口口口 |①---|
口②②口 |----|
口①①口 |②---|
口口口口 |----|
3
①口口① |①---|
②口口② |----|
口口口口 |②---|
口口口口 |----|
4
口口口口 |①---|
口②①口 |----|
口①②口 |②---|
口口口口 |----|
5
口口口口 |①---|
口口口口 |--②-|
②口口② |----|
口①①口 |----|
6
口口口口 |①---|
口②②口 |----|
口①①口 |②---|
口口口口 |----|
7
口口口口 |①---|
①口口① |----|
②口口② |②---|
口口口口 |----|
8
口口口口 |①---|
口②①口 |----|
口①②口 |②---|
口口口口 |----|
9
口口口口 |①---|
口口口口 |--②-|
②口口② |----|
口①①口 |----|
10
口口口口 |①---|
②口口② |--②-|
口①①口 |----|
口口口口 |----|
11
口口口口 |----|
口口口口 |----|
口口口口 |----|
口口口口 |----|
12
口口①口 |①---|
口口②口 |----|
口口口口 |②---|
口口口口 |----|
13
口①口口 |①---|
口②口口 |----|
口口口口 |②---|
口口口口 |----|
14
口口口口 |①---|
口口口口 |----|
②口口① |②---|
口口口口 |----|
15
口口口口 |①---|
②口口① |----|
口口口口 |②---|
口口口口 |----|
16
口口①口 |①---|
口口②口 |----|
口口口口 |②---|
口口口口 |----|
17
口①口口 |①---|
口②口口 |----|
口口口口 |②---|
口口口口 |----|
18
口口口口 |①---|
口口口口 |----|
②口口① |②---|
口口口口 |----|
19
口口口口 |①---|
②口口① |----|
口口口口 |②---|
口口口口 |----|
20
口口①① |①---|
口口②② |----|
口口口口 |②---|
口口口口 |----|
21
①①口口 |①---|
②②口口 |----|
口口口口 |②---|
口口口口 |----|
22
口口口口 |①---|
④③②① |②---|
口口口口 |③---|
口口口口 |④---|
23
口口口口 |①---|
口口口口 |②---|
①②③口 |③---|
口口口口 |----|
24
口口①① |①---|
口口②② |----|
口口口口 |②---|
口口口口 |----|
25
①①口口 |①---|
②②口口 |----|
口口口口 |②---|
口口口口 |----|
26
口口口口 |①---|
④③②① |②---|
口口口口 |③---|
口口口口 |④---|
27
口口口口 |①---|
口口口口 |②---|
①②③口 |③---|
口口口口 |----|
28
口口口口 |①---|
口②②口 |----|
口口口口 |②---|
口①①口 |----|
29
口口口口 |①---|
②口口② |----|
口口口口 |②---|
①口口① |----|
30
口口口口 |①---|
口口②④ |②---|
口口口口 |③---|
口口①③ |④---|
31
口口口口 |①---|
口口口口 |----|
口①①口 |----|
口口口口 |----|
32
口口②① |①---|
口口口口 |----|
口口口口 |②---|
口口口口 |----|
33
②①口口 |①---|
口口口口 |----|
口口口口 |②---|
口口口口 |----|
34
口口口口 |①---|
口①①口 |----|
口②②口 |②---|
口口口口 |----|
35
口口口口 |①---|
口口口口 |----|
口口口口 |----|
口①①口 |----|
36
②口口② |①---|
口口口口 |----|
口①①口 |②---|
口口口口 |----|
37
口口口口 |①---|
①口口① |----|
②口口② |②---|
口口口口 |----|
38
口口口口 |①---|
口口口口 |②---|
口④③口 |③---|
口②①口 |④---|
39
口口口口 |①---|
②②①① |----|
口口口口 |②---|
口口口口 |----|
40
口②①口 |①---|
口④③口 |②---|
口口口口 |③---|
口口口口 |④---|
41
口口口口 |①---|
口口口口 |②---|
口②①口 |③---|
口④③口 |④---|
42
口口口口 |①---|
口口口口 |②---|
④③②① |③---|
口口口口 |④---|
43
口口口口 |①---|
口①①口 |----|
口②②口 |②---|
口口口口 |----|
44
②口口① |①---|
④口口③ |②---|
口口口口 |③---|
口口口口 |④---|
45
口口口口 |①---|
口口口口 |②---|
②口口① |③---|
④口口③ |④---|
46
口口口口 |①---|
口口口口 |②---|
口④③口 |③---|
口②①口 |④---|
47
口口口口 |①---|
②②①① |----|
口口口口 |②---|
口口口口 |----|
48
口②①口 |①---|
口④③口 |②---|
口口口口 |③---|
口口口口 |④---|
49
口口口口 |①---|
口口口口 |②---|
口②①口 |③---|
口④③口 |④---|
50
口口口口 |①---|
口口口口 |②---|
④③②① |③---|
口口口口 |④---|
51
口口口口 |①---|
口①①口 |----|
口②②口 |②---|
口口口口 |----|
52
②口口① |①---|
④口口③ |②---|
口口口口 |③---|
口口口口 |④---|
53
口口口口 |①---|
口口口口 |②---|
②口口① |③---|
口口口③ |----|
54
口口③口 |①---|
口口②口 |②---|
口口①口 |③---|
口口口口 |----|
55
口③口口 |①---|
口②口口 |②---|
口①口口 |③---|
口口口口 |----|
56
口口口口 |①---|
④③②① |②---|
口口口口 |③---|
口口口口 |④---|
57
口口口口 |①---|
口②②口 |----|
口①①口 |②---|
口口口口 |----|
58
口①①口 |①---|
口口口口 |----|
口口口口 |----|
口口口口 |----|
59
口口口口 |----|
口口口口 |----|
口口口口 |----|
口口口口 |----|
60
口口口口 |①---|
口口口口 |----|
口口②口 |②---|
口口①口
61
口②口口 |①---|
口①口口 |--②-|
口口口口 |----|
口口口口
62
口口口口 |①---|
口口①口 |----|
口口②口 |②---|
口口口口
63
口口口口 |①---|
口口口口 |--②-|
口②②口 |----|
口①口口
64
口口口口 |----|
①口口① |--①-|
口口口口 |----|
口口口口
65
口①①口 |----|
口口口口 |--①-|
口口口口 |----|
口口口口
66
口口口口 |----|
口口口口 |----|
口口口口 |----|
口口口口
67
①口口① |①---|
口口口口 |----|
口口口口 |----|
口口口口 |----|
68
口①口口 |①---|
口②口口 |②---|
口③口口 |③---|
口口口口 |----|
69
口口①口 |①---|
口口②口 |②---|
口口③口 |③---|
口口口口 |----|
70
①口口口 |①---|
②口口口 |②---|
③口口口 |③---|
口口口口 |----|
71
口口口口 |----|
口①①口 |----|
口口口口 |----|
口口口口 |--①-|

不確定度: 0

最終更新:2016年04月21日 01:07