恋をしたい、もう一度
デッドボールP feat.GUMI

ADVANCED

Level: 5
BPM: 145
Notes: 418

1
口口口口 |----|
口口口口 |----|
口口口口 |①---|
口①①口 |----|
2
④口③④ |①--②|
口②口口 |--③-|
口口①口 |④---|
口口口口 |----|
3
④③口④ |①--②|
口口②口 |--③-|
口①口口 |④---|
口口口口 |----|
4
口③①口 |①--②|
口口口口 |----|
口④②口 |③--④|
口口口口 |----|
5
①口口① |①--②|
②口口② |--③-|
③口口③ |----|
口口口口 |----|
6
④口③④ |①--②|
口②口口 |--③-|
口口①口 |④---|
口口口口 |----|
7
④③口④ |①--②|
口口②口 |--③-|
口①口口 |④---|
口口口口 |----|
8
口③①口 |①--②|
口口口口 |----|
口④②口 |③--④|
口口口口 |----|
9
①口口① |①--②|
②口口② |--③-|
③口口③ |----|
口口口口 |----|
10
口①①口 |①--②|
口②②口 |--③-|
口③③口 |----|
口口口口 |----|
11
口口口口 |----|
口口口口 |----|
口①②口 |①---|
口口口口 |②---|
12
①①①① |①---|
口口口口 |----|
口口口口 |②---|
口②③口 |③---|
13
口口口口 |①---|
①①①① |----|
口③②口 |②---|
口口口口 |③---|
14
②②①① |①---|
口口口口 |②---|
口④③口 |③---|
口口口口 |④---|
15
①口口① |①---|
②口口② |②---|
口④③口 |③---|
口口口口 |④---|
16
①①①① |①---|
口口口口 |----|
口口口口 |②---|
口②③口 |③---|
17
口口口口 |①---|
①①①① |----|
口③②口 |②---|
口口口口 |③---|
18
②②①① |①---|
口口口口 |②---|
口④③口 |③---|
口口口口 |④---|
19
①口口① |①---|
口口口口 |--②-|
口③④口 |③---|
②口口② |④---|
20
①①①① |①---|
②口口② |②---|
口口口口 |③---|
口③④口 |④---|
21
口口口口 |①---|
①①①① |②---|
②④③② |③---|
口口口口 |④---|
22
②②①① |①---|
口口口口 |②---|
口④③口 |③---|
口口口口 |④---|
23
①口口① |①---|
②口口② |②---|
口④③口 |③---|
口口口口 |④---|
24
①①①① |①---|
②口口② |②---|
口口口口 |③---|
口③④口 |④---|
25
口口口口 |①---|
①①①① |②---|
②④③② |③---|
口口口口 |④---|
26
②②①① |①---|
口口口口 |②---|
口④③口 |③---|
口口口口 |④---|
27
①口口① |①---|
口口口口 |--②-|
口口口口 |----|
②口口② |----|
28
口口①① |①---|
口口②② |②---|
口③④口 |③---|
口口口口 |④---|
29
②③③② |①---|
口④④口 |②---|
口⑤⑤口 |③--④|
①口口① |--⑤-|
30
④③②① |①---|
口口口口 |②---|
口口口口 |③---|
①②③④ |④---|
31
口口口口 |①---|
口①①口 |----|
口①①口 |----|
口口口口 |----|
32
口口口口 |①--②|
口⑥③口 |--③-|
口②⑤口 |④--⑤|
①口口④ |--⑥-|
33
口①①口 |①---②-|
②口口② |--③---|
⑥③③⑥ |④---⑤-|
④⑤⑤④ |--⑥---|
34
③口口③ |①---|
口①①口 |----|
口口口口 |②---|
口②②口 |③---|
35
口口口口 |①---|
口口口口 |----|
口口口口 |----|
①口口① |----|
36
口口口口 |----|
口口口口 |----|
口口口口 |①---|
①①①① |----|
37
口口口口 |①---|
②②②② |----|
①①①① |②---|
口口口口 |----|
38
口③③① |①---|
口口口口 |②--③|
口口口①
口②②口

④口口⑤
⑥口口口
口口口口 |--④-|
口口口口 |⑤-⑥-|
39
口④④口 |①-②③|
口口③① |-④-⑤|
口②⑥口 |----|
口⑤⑤口 |--⑥-|
40
口③②口 |①-②③|
口①口口 |----|
口⑦④口 |④-⑤⑥|
口⑤⑥口 |--⑦-|
41
口②③口 |①-②③|
⑥④①⑤ |----|
口口口口 |--④-|
口口口口 |⑤-⑥-|
42
口③③① |①---|
口口口口 |②--③|
口口口①
口②②口

④口口⑤
⑥口口口
口口口口 |--④-|
口口口口 |⑤-⑥-|
43
口④④口 |①-②③|
口口③① |-④-⑤|
口②⑥口 |----|
口⑤⑤口 |--⑥-|
44
口③②口 |①-②③|
口①口口 |----|
口⑥口口 |④--⑤|
④口口⑤ |--⑥-|
45
口②③口 |①-②③|
⑥④①⑤ |----|
口口口口 |--④-|
口口口口 |⑤-⑥-|
46
口③③① |①---|
口口口口 |②--③|
口口口①
口②②口

④口口⑤
⑥口口口
口口口口 |--④-|
口口口口 |⑤-⑥-|
47
口⑤⑤口 |①②③④|
口②①口 |-⑤-⑥|
口④③口
口⑥⑥口

口口口口
口口口口
口口⑦口 |----|
口口口口 |--⑦-|
48
口③②口 |①-②③|
口①口口 |----|
口⑦④口 |④-⑤⑥|
口⑤⑥口 |--⑦-|
49
口②③口 |①-②③|
⑥④①⑤ |----|
口口口口 |--④-|
口口口口 |⑤-⑥-|
50
口③③① |①---|
口口口口 |②--③|
口口口①
口②②口

④口口⑤
⑥口口口
口口口口 |--④-|
口口口口 |⑤-⑥-|
51
口④④口 |①-②③|
口口③① |-④-⑤|
口②⑥口 |----|
口⑤⑤口 |--⑥-|
52
口③②口 |①-②③|
口①口口 |----|
口⑥口口 |④--⑤|
④口口⑤ |--⑥-|
53
口②③口 |①-②③|
口口①口 |----|
口口口⑤ |----|
口口口④ |④-⑤-|
54
口口口口 |①---|
口④③① |②-③④|
⑥②口口 |----|
⑤口口口 |⑤-⑥-|
55
口口口口 |①---|
①③④口 |②-③④|
⑥口②⑥ |----|
⑤口口⑤ |⑤-⑥-|
56
口②②口 |①---|
①口口① |----|
口口口口 |----|
口口口口 |②---|
57
口口口口 |①---|
③⑤④② |②---|
③口口② |③---|
口①①口 |④-⑤-|
58
口口口口 |--①-|
口口口口 |----|
口口口口 |----|
口①①口 |----|
59
口口口口 |----|
口口口口 |----|
口口口口 |----|
口口口口 |----|
60
口口①① |①---|
口②口口 |②---|
口口③③ |③---|
口口口口
61
口口③③ |①---|
口口②口 |②-③-|
①①口口 |----|
口口口口
62
①①口口 |①---|
口口②口 |②---|
③③口口 |③---|
口口口口
63
③③口口 |①---|
口②口口 |②-③-|
口口①① |----|
口口口口
64
口②②口 |①---|
口口口口 |--②-|
口口口口 |----|
①口口①
65
②口口② |①---|
口口口口 |--②-|
口口口口 |----|
口①①口
66
口口口口 |①---|
口口口口 |--|
口口口口
①口口①
67
口口口口 |①---|
口①①口 |----|
口①①口 |----|
口口②口 |--②-|
68
口口口口 |①--②|
口③口口 |--③-|
口②口口
口①口口

口口④口
口口⑤口
口口口口 |④--⑤|
口⑥口口 |--⑥-|
69
口口口口 |①--②|
口口③口 |--③-|
口口②口
口口①口

口④口口
口⑤口口
口口口口 |④--⑤|
口口⑥口 |--⑥-|
70
口口④口 |①--②|
口③⑤口 |--③-|
口②口口 |④--⑤|
口①口口 |----|
71
口口口口 |----|
口口口口 |----|
口①①口 |----|
口口口口 |--①-|

不確定度: 0

最終更新:2016年04月21日 01:06