恋をしたい、もう一度
デッドボールP feat.GUMI

EXTREME

Level: 9
BPM: 145
Notes: 737

1
⑤⑥口口 |----|
口口口口 |----|
口④③口 |①②③④|
②口口① |--⑤⑥|
2
口口①③ |①--②|
口口③口 |--③-|
口口口②
口口②口

口口口口
口口口④
口口④口 |④---|
口口⑥⑤ |--⑤⑥|
3
口③口口 |①--②|
③④⑥口 |--③-|
④②口⑤ |④---|
②①口口 |--⑤⑥|
4
口①⑤口 |①--②|
②④口⑥ |--③④|
③口口口 |⑤--⑥|
⑦⑥②⑦ |--⑦-|
5
①口口① |①--②|
③口口③ |--③-|
②口口②
口口口口

口④口口
口⑤口口
⑨⑥口口 |---④⑤⑥|
口⑦口⑧ |⑦-⑧⑨|
6
②口②口 |①--②|
口口口① |--③-|
口③口③
口口口口

口口口口
④口④⑥
⑤口口口 |④---|
④口④口 |--⑤⑥|
7
①③口③ |①--②|
④⑥④口 |--③-|
⑤②口② |④---|
④口④口 |--⑤⑥|
8
口⑤①口 |①--②|
⑥口④② |--③④|
口口口③ |⑤--⑥|
⑦②⑥⑦ |--⑦-|
9
①口口① |①--②|
③口口③ |--③-|
②⑤④② |---④|
⑥口口⑥ |⑤-⑥-|
10
①口口① |①--②|
③口口③ |--③-|
②口口② |----|
口口口口 |----|
11
口口口口 |①---|
口口口口 |----|
口口口口
①①①①

⑤口口④
口③口口
口②口口 |②③-④|
口口口⑥ |--⑤-⑥-|
12
⑦①②⑥ |①---|
①⑤③② |②--③|
②④口① |④⑤-⑥|
口②①⑧ |--⑦-⑧-|
13
口①②口 |①---|
①口③② |②--③|
②口口①
口②①口

口口口⑥
口⑤口口
口④口⑧ |④⑤-⑥|
⑦口口口 |--⑦-⑧-|
14
口口口口 |①---|
①口口口 |②---|
口口口口
口口②口

⑥口口⑥
⑦④④⑦
口③③口 |③④-⑤|
⑤口口⑤ |--⑥-⑦-|
15
⑦②②⑥ |①---|
口⑤口口 |②-③-|
①④口① |④⑤-⑥|
口③③⑧ |--⑦-⑧-|
16
⑦①②⑥ |①---|
①⑤③② |②--③|
②④口① |④⑤-⑥|
口②①⑧ |--⑦-⑧-|
17
口①②口 |①---|
①口③② |②--③|
②口口①
口②①口

口口口⑥
口⑤口口
口④口⑧ |④⑤-⑥|
⑦口口口 |--⑦-⑧-|
18
口口口口 |①---|
①口口口 |②---|
口口口口
口口②口

口⑦⑥口
⑦④④⑥
口③③口 |③④-⑤|
⑤口口⑤ |--⑥-⑦-|
19
①口口① |①---|
口口口口 |--②-|
口口口口
口②②口

⑥口口⑤
口④口口
口③口口 |③④-⑤|
口口口⑦ |--⑥-⑦-|
20
⑧①口口 |①-②-|
①⑤④口 |③-④⑤|
口⑦⑥② |⑥⑦-⑧|
③③⑩⑨ |--⑨-⑩-|
21
口口③口 |①-②-|
②口口③ |③-④⑤|
口⑤口④
口①口口

⑧口⑩⑨
口口口口
⑦口⑥口 |⑥⑦-⑧|
口口口口 |--⑨-⑩-|
22
口①口口 |①---|
口①②③ |②-③-|
口口②③
口口口口

口⑦⑧口
口⑨口口
口口口口 |④⑤-⑥|
④⑥⑥⑤ |-⑦⑧⑨|
23
②口口口 |①-②-|
口口①③ |③-④-|
口口口口
口④④口

⑧口口⑦
口⑥口口
口⑤口口 |⑤⑥-⑦|
口口口⑨ |--⑧-⑨-|
24
⑧①口口 |①-②-|
①⑤④口 |③-④⑤|
口⑦⑥② |⑥⑦-⑧|
③③⑩⑨ |--⑨-⑩-|
25
口口③口 |①-②-|
②口口③ |③-④⑤|
口⑤口④
口①口口

⑧口⑩⑨
口口口口
⑦口⑥口 |⑥⑦-⑧|
口口口口 |--⑨-⑩-|
26
口①口口 |①---|
口①②③ |②-③-|
口口②③
口口口口

⑦⑧口口
口口口口
口口口口 |④⑤-⑥|
④⑥⑥⑤ |--⑦-⑧-|
27
口口①口 |①---|
②口口② |--②-|
②⑤④② |----|
口③口口 |③④⑤-|
28
②口①① |①-②-|
口口口口 |③-④-|
口口口口
④口③③

⑧⑦⑨⑦
口口⑥口
口口⑤口 |⑤⑥-⑦|
口⑩口口 |-⑧⑨⑩|
29
口⑤④口 |①---|
②口口③ |②---|
⑤③②④ |③--④|
口口口① |--⑤-|
30
①口口② |①---|
口④③口 |②---|
口口口口 |③---|
④①②③ |④---|
31
⑤⑤口⑥ |①-②-|
⑦口④⑧ |③④⑤-|
⑨③①⑩ |--⑥⑦|
⑪口②口 |⑧⑨⑩⑪|
32
③②①口 |①--②|
③②①口 |--③-|
⑥⑤④口 |④--⑤|
⑥⑤④口 |--⑥-|
33
④⑤②① |①---②-|
口③⑥口 |--③---|
口③⑥口 |④---⑤-|
④⑤②① |--⑥---|
34
⑤②口⑤ |①---|
①③口① |--②③|
口④口口 |④---|
口口口口 |⑤---|
35
口口口口 |①---|
口口口口 |----|
口口口口 |----|
①口口① |----|
36
口口口口 |①---|
①口口① |----|
①口口① |②---|
②②②② |----|
37
口口口口 |①---|
②②②② |----|
①①①① |②---|
口口口口 |----|
38
口口①① |①---|
③③口口 |②--③|
口口①①
②②口口

口口口口
口口④口
口⑤⑥口 |--④-|
口口口口 |⑤-⑥-|
39
①④④① |①-②③|
③口口② |-④-⑤|
①口口①
口⑤⑤口

口口口口
⑪口口⑩
口⑨⑧口 |--⑥⑦|
⑦口口⑥ |⑧⑨⑩⑪|
40
③⑨①① |①-②③|
口②⑥口 |--④⑤|
⑨口⑤口 |⑥-⑦⑧|
口⑦④⑧ |--⑨-|
41
口口①口 |①-②③|
④口口口 |--④-|
口②③①
口口口口

⑧口口口
口口⑦口
口⑦口口 |⑤-⑥-|
⑤⑥⑥⑧ |⑦-⑧-|
42
口口①① |①---|
③③口口 |②--③|
口口①①
②②口口

口口口口
口口④口
口⑤⑥口 |--④-|
口口口口 |⑤-⑥-|
43
①④④① |①-②③|
③口口② |-④-⑤|
①口口①
口⑤⑤口

口口口口
⑪口口⑩
口⑨⑧口 |--⑥⑦|
⑦口口⑥ |⑧⑨⑩⑪|
44
③⑨①① |①-②③|
口②⑥口 |--④⑤|
⑨口⑤口 |⑥--⑦|
口⑦④⑧ |⑧-⑨-|
45
口口①口 |①-②③|
④口口口 |--④-|
口②③①
口口口口

⑧口口口
口口⑦口
口⑦口口 |⑤-⑥-|
⑤⑥⑥⑧ |⑦-⑧-|
46
口口①① |①---|
④④口③ |②-③④|
口口①①
②②口口

口口口口
口口⑤口
口⑥⑦口 |--⑤-|
口口口口 |⑥-⑦-|
47
①⑤⑤口 |①②③④|
口口口② |-⑤-⑥|
③口口口
口⑥⑥④

口口口⑦
⑧⑩口口
口口⑨口 |--⑦⑧|
⑫口口⑪ |⑨⑩⑪⑫|
48
③②①口 |①-②③|
口口口① |--④⑤|
口口⑤口
口口④口

口⑨口口
口口⑥口
⑨口口口 |⑥-⑦⑧|
口⑦口⑧ |--⑨-|
49
④口①口 |①-②③|
口口⑤口 |--④⑤|
口②③①
口口口口

口⑥口口
⑧⑧口⑪
⑩⑩口口 |⑥⑦⑧⑨|
⑫⑫⑨⑦ |⑩⑪⑫-|
50
②②①① |①---|
口口口口 |②-③④|
口③①①
口口④④

口口口口
口⑥⑤口
口口⑦口 |--⑤-|
口口口口 |⑥-⑦-|
51
①④④① |①-②③|
③口口② |-④-⑤|
①口口①
口⑤⑤口

⑪口口口
口⑨⑥口
口口口⑧ |--⑥⑦|
⑦口口⑩ |⑧⑨⑩⑪|
52
⑦口①⑦ |①-②③|
口口⑥① |--④⑤|
②③⑤口 |⑥--⑦|
⑧口④⑧ |--⑧-|
53
口①①口 |①--②|
①②③① |③④⑤⑥|
口④⑤口 |⑦---|
口⑥⑦口 |----|
54
口口①口 |①---|
①④③① |②-③④|
口①口口
②口口②

⑤口⑥口
口口口口
口⑦口口 |-⑤-⑥|
口口⑧口 |⑦-⑧-|
55
口①口口 |①---|
①③④① |②-③④|
口口①口
②口口②

口⑥口⑤
口口口口
口口⑦口 |-⑤-⑥|
口⑧口口 |⑦-⑧-|
56
⑥⑥②② |①---|
③④⑤口 |②--③|
口口口口 |-④-⑤|
口口①① |⑥---|
57
口口口口 |①---|
⑤口口④ |②---|
口口口③ |③---|
①①口② |④-⑤-|
58
口口口口 |--①-|
口口口口 |----|
口①①口 |----|
口口口口 |----|
59
口口口口 |----|
口口口口 |----|
口口口口 |----|
口口口口 |----|
60
①⑥⑥① |①--②|
口口口口 |③④⑤-|
口②③口 |⑥---|
口④⑤口
61
①⑤口① |①--②|
⑤口②口 |③④⑤-|
③⑥口⑥ |⑥-⑦-|
口⑦④⑦
62
①⑥⑥① |①--②|
③口②口 |③④⑤-|
口口口口 |⑥---|
⑤口④口
63
①口⑤① |①--②|
口②口⑤ |③④⑤-|
⑥口⑥③ |⑥-⑦-|
⑦④⑦口
64
口①④口 |①-②-|
①口口④ |③-④-|
⑤②⑤② |⑤-⑥-|
⑥③⑥③
65
口①④口 |①-②-|
①口口④ |③-④-|
⑤②⑤② |⑤-⑥-|
⑥③⑥③
66
口①口口 |①-②-|
①口口口 |③-|
口②口②
口③口③
67
①口①口 |①---|
口①口① |----|
口口口口
口口口口

⑥⑦口口
口口口口
口⑤④口 |②③④⑤|
③口口② |--⑥⑦|
68
口口①③ |①--②|
口口③口 |--③-|
口口口②
口口②口

口口口口
口⑤口④
⑤口④口 |④--⑤|
口口⑦⑥ |--⑥⑦|
69
口②口口 |①--②|
②口口口 |--③-|
口③口口
③①口口

⑥⑦口口
口④口⑤
④口⑤口 |④--⑤|
口口口口 |--⑥⑦|
70
口口①③ |①--②|
口⑤③④ |--③-|
⑤口④② |④--⑤|
口口②口 |----|
71
口②①口 |----|
口口口口 |----|
口口口口 |----|
口口口口 |--①②|

不確定度: 0

最終更新:2016年04月21日 01:05