Love♥km
dj TAKA feat. REN

BASIC

Level: 3
BPM: 184
Notes: 268

1
口口口口 |----|
口口口口 |----|
口口口口 |----|
口口口口 |----|
2
口口口口 |①---|
口口口口 |----|
口②口② |②---|
口口①口 |----|
3
口④③口 |①---|
口②口② |----|
口口①口 |②-③-|
口口口口 |--④-|
4
口口口口 |①---|
口口口口 |----|
②①②口 |②---|
口口口口 |----|
5
口③④口 |①---|
②口②口 |----|
口①口口 |②-③-|
口口口口 |--④-|
6
口口口口 |①---|
口口口口 |----|
口②①② |②---|
口口口口 |----|
7
口④③口 |①---|
口②口② |----|
口口①口 |②-③-|
口口口口 |--④-|
8
口口口口 |①---|
口口口口 |----|
②①②口 |②---|
口口口口 |----|
9
口口口口 |①---|
②④③口 |②---|
口①口口 |③---|
口口口口 |④---|
10
口口口口 |①---|
口口口① |②---|
口口③② |③---|
口口口口 |----|
11
口口口口 |①---|
①口口口 |②---|
②③口口 |③---|
口口口口 |----|
12
口口口口 |①---|
口口口口 |②---|
口口口① |③---|
口口③② |----|
13
口口口口 |①---|
④口口口 |②---|
①口口口 |③---|
②③口口 |④---|
14
口口口口 |①---|
口口口口 |②---|
口④口② |③---|
③口①口 |④---|
15
口④口② |①---|
③口①口 |②---|
口口口口 |③---|
口口口口 |④---|
16
口口口口 |①---|
口口②② |----|
口口①① |②---|
口口口口 |----|
17
①口口口 |①---|
口②口口 |②---|
③口口口 |③-④-|
口④口⑤ |⑤---|
18
口口①① |①--②|
口口②② |----|
口口口口 |----|
口口口口 |----|
19
口口口口 |①---|
口口口口 |----|
①①口口 |----|
①①口口 |----|
20
口口口口 |①---|
口口口口 |----|
口口口口 |----|
口①①口 |----|
21
口口口口 |①---|
口口口口 |----|
①①①① |----|
口口口口 |----|
22
口口口口 |①---|
①①①① |----|
口口口口 |----|
口口口口 |----|
23
①口口① |①---|
口口口口 |----|
口口口口 |----|
口口口口 |----|
24
口口口口 |①---|
口口口口 |----|
口口口口 |----|
口①①口 |----|
25
口口口口 |①---|
口口口口 |----|
①①①① |----|
口口口口 |----|
26
②④③口 |①---|
①①①① |②---|
口口口口 |③---|
口口口口 |④---|
27
口口口口 |①---|
②①②口 |----|
口口口口 |②---|
口口口口 |----|
28
口口口口 |①---|
口口口口 |----|
②①②口 |②---|
口③口口 |③---|
29
口口口口 |①---|
口口口口 |----|
口②口② |②---|
口口①口 |----|
30
口口口口 |①---|
口②③② |----|
口口①口 |②---|
口口口口 |③---|
31
②①②口 |①---|
口口口口 |----|
口口口口 |②---|
口口口口 |----|
32
口口口口 |①---|
口①口口 |----|
②③②口 |②---|
口口口口 |③---|
33
口口口④ |①---|
口口③口 |②---|
口口口② |③---|
口口①口 |④---|
34
口口①口 |①---|
口②口口 |②---|
口口③口 |③---|
口④口口 |④---|
35
口口口口 |----|
口口口口 |----|
口口口口 |----|
口口口口 |----|
36
口口口口 |①---|
口口口口 |----|
②口口口 |②---|
口①①口 |----|
37
②口口口 |①---|
①口口口 |----|
口口口口 |②---|
口口口口 |----|
38
口口口③ |①---|
口①②口 |②---|
口口口口 |③---|
口口口口 |----|
39
口口口口 |①---|
口口口① |----|
口口口② |②---|
口口口口 |----|
40
口口口口 |①---|
口口口口 |②---|
②口口③ |③---|
口①①口 |----|
41
口口口口 |①---|
②口口③ |②---|
口①①口 |③---|
口口口口 |----|
42
口口口口 |①---|
③口口口 |②---|
②④口口 |③---|
口①口口 |④---|
43
口口口③ |①---|
口口②口 |②---|
口口①口 |③---|
口口口口 |----|
44
口口口口 |①---|
口口口口 |----|
②口口口 |②---|
口①①口 |----|
45
②口口口 |①---|
①口口口 |----|
口口口口 |②---|
口口口口 |----|
46
口口口③ |①---|
口①②口 |②---|
口口口口 |③---|
口口口口 |----|
47
口口口口 |①---|
口口口① |----|
口口口② |②---|
口口口口 |----|
48
口口口口 |①---|
口口口口 |②---|
②口口③ |③---|
口①①口 |----|
49
口口口口 |①---|
②口口③ |②---|
口①①口 |③---|
口口口口 |----|
50
口口口口 |①---|
口④口口 |②---|
口③②口 |③---|
口口①口 |④---|
51
口口口口 |①---|
④口口④ |②---|
③口口③ |③---|
②①①② |④---|
52
①①①① |①---|
口口口口 |----|
口口口口 |----|
口口口口 |----|
53
口口口口 |----|
①①①① |----|
口②②口 |----|
口口口口 |①-②-|
54
口口口口 |----|
口口口口 |----|
口口口口 |----|
口口口口 |----|
55
①①口口 |----|
口口②② |①---|
③③口口 |②---|
口口口口 |③---|
56
口口口口 |①---|
口口口口 |----|
口口口口 |----|
口口①① |----|
57
口口口口 |----|
口口口口 |----|
口②②口 |----|
口①①口 |①-②-|
58
口口口口 |①---|
口①①口 |----|
口口口口 |----|
口口口口 |----|
59
口口口口 |①---|
①口口① |----|
口口口口 |----|
口口口口 |----|
60
①①①① |①---|
口口口口 |----|
口口口口 |----|
口口口口 |----|
61
口口口口 |----|
①①①① |----|
口②②口 |----|
口口口口 |①-②-|
62
口口口口 |----|
口口口口 |----|
口口口口 |----|
口口口口 |----|
63
①①①① |----|
②②②② |①---|
③③③③ |②---|
口口口口 |③---|
64
口口口口 |①---|
口口口口 |----|
口口口口 |----|
①①①① |----|
65
口口口口 |----|
口口口口 |----|
口②②口 |----|
口①①口 |①-②-|
66
口口口口 |①---|
口①①口 |----|
口口口口 |----|
口口口口 |----|
67
口口口口 |①---|
①口口① |----|
口口口口 |----|
口口口口 |----|
68
①①①① |①---|
口口口口 |----|
口口口口 |----|
口口口口 |----|
69
口口口口 |----|
②①①② |----|
口口口口 |--①-|
口口口口 |--②-|
70
口口口口 |----|
口口口口 |----|
口口口口 |----|
口口口口 |----|
71
口口口口 |----|
口口口口 |----|
①②②① |--①-|
口口口口 |--②-|
72
口口口口 |①---|
口口口口 |----|
口口口口 |----|
口①①口 |----|
73
口口口口 |①---|
③②②③ |----|
口①①口 |--②-|
口口口口 |--③-|
74
②①①② |①---|
口口口口 |----|
口口口口 |②---|
口口口口 |----|
75
口口口口 |①---|
口①①口 |----|
③②②③ |--②-|
口口口口 |--③-|


不确定度: 0

タグ:

+ タグ編集
  • タグ:

このサイトはreCAPTCHAによって保護されており、Googleの プライバシーポリシー利用規約 が適用されます。

最終更新:2012年11月10日 14:24