UROBOROS OVERDIVE
L.E.D. feat. YURiCa/花たん

ADVANCED

Level: 7
BPM: 160
Notes: 574

1
口口口口 |----|
口口口口 |----|
口口口口 |----|
口口口口 |----|
2
口口口口 |----|
口口口口 |----|
口口口口 |----|
口口口口 |----|
3
⑥⑤④口 |①--②|
口⑦口口 |--③-|
口口口口 |④--⑤|
口①②③ |--⑥⑦|
4
口④③⑦ |--①-|
口⑥⑤口 |②---|
②口口① |③④⑤⑥|
口口口口 |⑦---|
5
口④⑤⑥ |①--②|
口口⑦口 |--③-|
口口口口 |④--⑤|
③②①口 |--⑥⑦|
6
口口口口 |--①-|
口⑦⑧口 |②---|
①⑤⑥② |③-④-|
④口口③ |⑤⑥⑦⑧|
7
口①②③ |①--②|
口口口口 |--③-|
口⑦口口 |④--⑤|
⑥⑤④口 |--⑥⑦|
8
③口口④ |--①-|
②⑥⑤① |②---|
口⑧⑦口 |③-④-|
口口口口 |⑤⑥⑦⑧|
9
口口口口 |①--②|
④口口① |--③-|
⑤口口② |④--⑤|
⑥口口③ |--⑥-|
10
口口口口 |①--②|
口④①口 |--③-|
口⑤②口 |④--⑤|
口⑥③口 |--⑥-|
11
①口口① |①---|
②④③② |②---|
口⑥⑤口 |③-④-|
口口口口 |⑤-⑥-|
12
口②①口 |--①-|
②口口① |②---|
口口③口 |----|
口口口口 |--③-|
13
口口口口 |①-②-|
①⑤⑦③ |③-④-|
口口口口 |⑤-⑥-|
②⑥⑧④ |⑦-⑧-|
14
①②③④ |--①-|
口口口⑤ |②-③-|
口口口⑥ |④-⑤-|
口口口⑦ |⑥-⑦-|
15
口口口口 |--①-|
口①②口 |②---|
口①②口 |--③-|
口③④⑤ |④-⑤-|
16
①③⑦⑤ |①-②-|
口口口口 |③-④-|
④②⑥⑧ |⑤-⑥-|
口口口口 |⑦-⑧-|
17
口口口口 |--①-|
口②②口 |②---|
口口口口 |----|
口①①口 |----|
18
口口口口 |----|
口③③口 |----|
口②②口 |--①-|
口①①口 |②-③-|
19
①口口① |----|
②③③② |①---|
口④④口 |②---|
口口口口 |③-④-|
20
①口口① |--①-|
口③④⑤ |②---|
口口口口 |--③-|
②口口② |④-⑤-|
21
①⑤⑦③ |①-②-|
口口口口 |③-④-|
②⑥⑧④ |⑤-⑥-|
口口口口 |⑦-⑧-|
22
④⑤⑥⑦ |--①-|
③口口口 |②-③-|
②口口口 |④-⑤-|
①口口口 |⑥-⑦-|
23
口口口口 |--①-|
口①②口 |②---|
口①②口 |--③-|
口③④⑤ |④-⑤-|
24
①②④③ |①-②-|
①口口③ |③-④-|
⑤口口⑦ |⑤-⑥-|
⑤⑥⑧⑦ |⑦-⑧-|
25
口口口口 |--①②|
口口①口 |③---|
口②③口 |----|
口口口口 |----|
26
⑦口口⑧ |①-②-|
⑤口口⑥ |③-④-|
③口口④ |⑤-⑥-|
①口口② |⑦-⑧-|
27
口口口口 |--①-|
口②口口 |②---|
口口①口 |----|
口口口口 |----|
28
口口口口 |----|
口口口口 |----|
口口口口 |----|
口口口口 |----|
29
口口④口 |①---|
口③口口 |②---|
口口②口 |③---|
口①口口 |④---|
30
①口口口 |①--②|
②口口口 |--③-|
③口口口 |④---|
口④④口 |----|
31
口口 |①---|
口口 |----|
口口口口 |----|
口口口口 |----|
32
口口口 |----|
口 |----|
口口①口 |----|
口口口口 |①-②-|
33
口口口口 |----|
口口口口 |----|
口口口口 |----|
口口口口 |----|
34
②口口③ |----|
口口口 |①---|
口口口口 |②---|
口口口口 |③---|
35
口口 |①---|
口口
口口口口
口口口口

口口
口 |--②-|
口口口口 |----|
口口口口 |----|
36
②口口③ |----|
口口口 |①---|
口口口口 |②---|
口口口口 |③---|
37
口口 |①---|
口口
口口口口
口口口口

口口
口 |--②-|
口口口口
口口口口

口口口

口口口口 |----|
口口口口 |③---|
38
口口口口 |----|
口口口 |----|
口口口口 |①---|
口口口口 |----|
39
口口口① |①-②-|
口④口口 |③-④-|
口口③口
②口口口

⑤⑤⑦⑦
口口口口
口⑥口⑧ |⑤-⑥-|
口口口口 |⑦-⑧-|
40
口口口口 |--①-|
①②③⑥ |②-③-|
口口口⑤ |--④-|
①②③④ |⑤-⑥-|
41
①①②② |①-②-|
⑤⑥⑦口 |③-④-|
口⑧⑧口 |⑤-⑥-|
③③④④ |⑦-⑧-|
42
②①①② |--①-|
口口⑤口 |--②-|
②④口② |--③-|
口口③口 |④-⑤-|
43
口口口口 |①-②-|
①①口口 |③---|
口口②② |----|
③③口口 |----|
44
①③口⑦ |①-②-|
②口⑤⑧ |③-④-|
口④口口 |⑤-⑥-|
口口⑥口 |⑦-⑧-|
45
口③口口 |--①-|
③口口口 |②-③-|
口①②口 |----|
①口口② |----|
46
口口口口 |----|
口口口口 |----|
口口口口 |--①-|
口③②① |②-③-|
47
口口口① |①-②-|
口④口口 |③-④-|
口口③口
②口口口

⑤⑤⑦⑦
口口口口
口⑥口⑧ |⑤-⑥-|
口口口口 |⑦-⑧-|
48
口口口口 |--①-|
①②③⑥ |②-③-|
口口口⑤ |--④-|
①②③④ |⑤-⑥-|
49
①①②② |①-②-|
⑤⑥⑦口 |③-④-|
口⑧⑧口 |⑤-⑥-|
③③④④ |⑦-⑧-|
50
②①①② |--①-|
口口⑤口 |--②-|
②④口② |--③-|
口口③口 |④-⑤-|
51
口口口口 |①-②-|
①①口口 |③---|
口口②② |----|
③③口口 |----|
52
④口口④ |--①-|
⑤口口⑤ |②-③-|
⑥⑦⑦⑥ |④-⑤-|
①③口② |⑥-⑦-|
53
④①①④ |①-②-|
口②②口 |③-④-|
口口口口
口③③口

口口口口
⑥⑦⑦⑤
口⑥⑤口 |--⑤-|
⑦口口⑦ |⑥-⑦-|
54
口口口口 |----|
口口口口 |----|
口口口口 |----|
口口口口 |----|
55
⑥⑤④口 |①--②|
口⑦口口 |--③-|
口口口口 |④--⑤|
口①②③ |--⑥⑦|
56
口④③⑦ |--①-|
口⑥⑤口 |②---|
②口口① |③④⑤⑥|
口口口口 |⑦---|
57
口③③口 |①--②|
①口口口 |--③-|
口口②口
口②口①

⑥口口⑤
口口口口
④⑤口口 |④--⑤|
口口④⑥ |--⑥-|
58
⑧口⑤口 |①-②-|
口④口① |③-④-|
⑥口③口 |⑤-⑥-|
②口⑦口 |⑦-⑧-|
59
口⑥⑤口 |①-②-|
②③④口 |③-④-|
⑥口口⑤ |⑤---|
口口口① |⑥---|
60
④口口④ |①-②-|
口口口口 |③-④-|
⑤口口⑤ |--⑤-|
口③②① |----|
61
口口口口 |--①-|
口⑥口④ |②-③-|
⑦口⑤口 |④-⑤-|
①②③口 |⑥-⑦-|
62
口口口口 |①-②-|
①⑦③⑦ |③-④-|
⑥②⑥④ |--⑤-|
口⑤口⑤ |⑥-⑦-|
63
①⑤⑥② |--①-|
口口口口 |②-③-|
口口口口 |④-⑤-|
③⑦口④ |⑥-⑦-|
64
口口口口 |①-②-|
⑦②③⑦ |③-④-|
⑥④④⑥ |--⑤-|
⑤口①⑤ |⑥-⑦-|
65
口①①口 |--①-|
口④⑤口 |--②-|
口⑥③口 |③-④-|
口②②口 |⑤-⑥-|
66
③口口① |①-②-|
口口口口 |③-④-|
④口口② |--⑤-|
口⑦⑥⑤ |⑥-⑦-|
67
口口口① |①-②-|
口④口口 |③-④-|
口口③口
②口口口

⑤⑤⑦⑦
口口口口
口⑥口⑧ |⑤-⑥-|
口口口口 |⑦-⑧-|
68
口口口口 |--①-|
①②③⑥ |②-③-|
口口口⑤ |--④-|
①②③④ |⑤-⑥-|
69
①①②② |①-②-|
⑤⑥⑦口 |③-④-|
口⑧⑧口 |⑤-⑥-|
③③④④ |⑦-⑧-|
70
②①①② |--①-|
口口⑤口 |--②-|
②④口② |--③-|
口口③口 |④-⑤-|
71
口口口口 |①-②-|
①①口口 |③---|
口口②② |----|
③③口口 |----|
72
①③口⑦ |①-②-|
②口⑤⑧ |③-④-|
口④口口 |⑤-⑥-|
口口⑥口 |⑦-⑧-|
73
口③口口 |--①-|
③口口口 |②-③-|
口①②口 |----|
①口口② |----|
74
口口口口 |----|
口口口口 |----|
口口口口 |--①-|
口③②① |②-③-|
75
口口口① |①-②-|
口④口口 |③-④-|
口口③口
②口口口

⑤⑤⑦⑦
口口口口
口⑥口⑧ |⑤-⑥-|
口口口口 |⑦-⑧-|
76
口口口口 |--①-|
①②③⑥ |②-③-|
口口口⑤ |--④-|
①②③④ |⑤-⑥-|
77
①①②② |①-②-|
⑤⑥⑦口 |③-④-|
口⑧⑧口 |⑤-⑥-|
③③④④ |⑦-⑧-|
78
②①①② |--①-|
口口⑤口 |--②-|
②④口② |--③-|
口口③口 |④-⑤-|
79
口口口口 |①-②-|
①①口口 |③---|
口口②② |----|
③③口口 |----|
80
④口口④ |--①-|
⑤口口⑤ |②-③-|
⑥⑦⑦⑥ |④-⑤-|
①③口② |⑥-⑦-|
81
④①①④ |①-②-|
口②②口 |③-④-|
口口口口
口③③口

口口口口
⑥⑦⑦⑤
口⑥⑤口 |--⑤-|
⑦口口⑦ |⑥-⑦-|

不確定度: 0

最終更新:2016年07月27日 16:41