黒髪乱れし修羅となりて~凛edition~
日向美ビタースイーツ♪

ADVANCED

Level: 6
BPM: 150
Notes: 516

1
口口口口 |----|
口口口口 |----|
口口口口 |----|
口口口口 |----|
2
口⑤口口 |①-②-|
②⑥口④ |③-④-|
①⑦口③ |--⑤-|
口口口口 |⑥-⑦-|
3
口口⑦口 |①-②-|
②口⑥④ |③-④-|
①口⑤③ |--⑤-|
口口口口 |⑥-⑦-|
4
口⑦口口 |①-②-|
②⑥口④ |③-④-|
①⑤口③ |--⑤-|
口口口口 |⑥-⑦-|
5
口口⑦口 |①-②-|
②口⑥④ |③-④-|
①口⑤③ |--⑤-|
口口口口 |⑥-⑦-|
6
口⑦口口 |①-②-|
口口⑥口 |③-④-|
②⑤口④ |--⑤-|
①口口③ |⑥-⑦-|
7
②口口② |①-②-|
①④④① |③---|
口口口口 |-④--|
口③③口 |----|
8
口⑦口口 |①-②-|
口口⑥口 |③-④-|
②⑤口④ |--⑤-|
①口口③ |⑥-⑦-|
9
②口口② |①-②-|
口③口④ |③---|
④口③口 |-④--|
①口口① |----|
10
口口口口 |----|
①②③口 |--①-|
口口口④ |②-③-|
口口口口 |--④-|
11
口口口口 |①---|
口口口① |--②-|
口口口口
口②②口

③口口口
口口⑤④
口口口口 |--③-|
口口口口 |④-⑤-|
12
口口口口 |①-②-|
②①口口 |③---|
③口口口 |----|
口口口口 |----|
13
口口口口 |①---|
口口口口 |②---|
口①②③ |③---|
口口口口 |----|
14
口口口① |①---|
②口⑤口 |--②-|
口③口口 |③-④-|
口口④口 |--⑤-|
15
口口口口 |①---|
口⑤口口 |--②-|
②口④① |--③-|
口③口口 |④-⑤-|
16
口③口口 |①-②-|
口口②口 |③---|
⑥①口⑦ |④-⑤-|
④口口⑤ |⑥-⑦-|
17
口①①口 |①---|
口口口口 |②-③-|
口②③口
口口口口

口⑥⑦口
口④⑤口
口口口口 |④-⑤-|
口口口口 |⑥-⑦-|
18
口口口口 |①---|
口②③④ |--②③|
①⑥⑤① |④---|
口口口口 |--⑤⑥|
19
⑤口口⑤ |①---|
口口口口 |--②③|
①口口口 |④---|
口②③④ |⑤---|
20
口口口口 |①---|
口②③④ |--②③|
①⑥⑤① |④---|
口口口口 |--⑤⑥|
21
⑦口口口 |①---|
⑥口口口 |--②③|
①口口⑤ |④-⑤-|
口②③④ |⑥-⑦-|
22
口口口口 |①---|
口②③口 |--②③|
口①①口
口口口口

口口口口
口口口④
口⑥⑤口 |④---|
口口口口 |--⑤⑥|
23
⑤口口⑤ |①---|
口口口口 |--②③|
①口口口 |④---|
口②③④ |⑤---|
24
口口口口 |①---|
④③②口 |--②③|
①⑤⑥① |④---|
口口口口 |--⑤⑥|
25
口口口口 |①---|
口口口口 |--②③|
口口口①
口③②口

口口口口
⑥口口⑥
⑤口口⑤ |④---|
④口口口 |⑤-⑥-|
26
①口口① |①---|
口③③口 |--②③|
口②②口
口口口口

⑤④④口
口口口⑥
口口口口 |④---|
口口口口 |⑤-⑥-|
27
口口口③ |①---|
②口⑤口 |--②-|
①④口③ |③---|
②口口口 |④-⑤-|
28
口①口口 |①---|
口⑥⑦口 |--②③|
口口口⑤ |④-⑤-|
②③④口 |⑥-⑦-|
29
①口口② |①--②|
①口口② |--③-|
③口口口
③口口口

⑤口口口
⑤口⑥口
口口口④ |-④--|
口口口④ |⑤-⑥-|
30
口②③④ |①---|
⑤口口⑤ |--②③|
⑥①口⑥ |④---|
口口口口 |⑤-⑥-|
31
口③③口 |①---|
口口口⑤ |--②-|
④②②口 |③---|
①口口① |④-⑤-|
32
①口口口 |①---|
②③④口 |--②③|
口口口口 |④--⑤|
口⑤⑤⑥ |--⑥-|
33
口口口② |①--②|
④口口口 |----|
①口口口 |③--④|
③口口口 |----|
34
⑤口口⑥ |①-②-|
⑤③④⑥ |③-④-|
口①②口 |--⑤-|
口口口口 |⑥---|
35
口口②口 |①--②|
口④口口 |----|
口口①口 |③--④|
口③口口 |----|
36
口⑥⑥口 |①-②-|
③口口④ |③-④-|
口⑤⑤口 |--⑤-|
①口口② |⑥---|
37
口口口② |①--②|
④口口口 |----|
口口口① |③--④|
③口口口 |----|
38
⑤口口⑥ |①-②-|
⑤③④⑥ |③-④-|
口①②口 |--⑤-|
口口口口 |⑥---|
39
口口②口 |①--②|
口④口口 |----|
口口①口 |③--④|
口③口口 |----|
40
口⑥⑥口 |①-②-|
口口口口 |③-④-|
③⑤⑤④ |--⑤-|
①口口② |⑥---|
41
口口口口 |①---|
②④⑤③ |----|
口口口口 |②-③-|
口①①口 |④-⑤-|
42
口口口口 |----|
①②③口 |--①-|
口口口④ |②-③-|
口口口口 |--④-|
43
口口口口 |①---|
口口口① |--②-|
口口口口
口②②口

③口口口
口口⑤④
口口口口 |--③-|
口口口口 |④-⑤-|
44
口口口口 |①-②-|
②①口口 |③---|
③口口口 |----|
口口口口 |----|
45
①①口口 |①---|
口口②② |②---|
③③口口 |③---|
口口④④ |④---|
46
口口口① |①---|
②口⑤口 |--②-|
口③口口 |③-④-|
口口④口 |--⑤-|
47
口口口口 |①---|
口⑤口口 |--②-|
②口④① |--③-|
口③口口 |④-⑤-|
48
口③口口 |①-②-|
口口②口 |③---|
⑥①口⑦ |④-⑤-|
④口口⑤ |⑥-⑦-|
49
口①①口 |①---|
口口口口 |②-③-|
口②③口
口口口口

口⑥⑦口
口④⑤口
口口口口 |④-⑤-|
口口口口 |⑥-⑦-|
50
口口口口 |①---|
口②③④ |--②③|
①⑥⑤① |④---|
口口口口 |--⑤⑥|
51
⑤口口⑤ |①---|
口口口口 |--②③|
①口口口 |④---|
口②③④ |⑤---|
52
口口口口 |①---|
口②③④ |--②③|
①⑥⑤① |④---|
口口口口 |--⑤⑥|
53
口口口口 |①---|
口口口口 |--②③|
①口口口 |④---|
口②③④ |----|
54
口口口口 |①---|
口②③口 |--②③|
口①①口
口口口口

口口口口
口口口④
口⑥⑤口 |④---|
口口口口 |--⑤⑥|
55
⑤口口⑤ |①---|
口口口口 |--②③|
①口口口 |④---|
口②③④ |⑤---|
56
口口口口 |①---|
④③②口 |--②③|
①⑤⑥① |④---|
口口口口 |--⑤⑥|
57
⑤口⑤口 |①---|
口口口口 |--②③|
口口口① |④---|
④③②口 |⑤---|
58
口②口口 |①---|
②口口口 |②---|
口①口①
口口口口

口口口口
口口口③
口④③口 |③---|
④口口口 |④---|
59
③口口口 |①-②-|
②口①④ |③-④-|
口口④①
口口口口

口口口⑥
口口⑥口
口⑤口口 |--⑤-|
⑤口口口 |--⑥-|
60
口口口口 |--①-|
④⑥⑦口 |②-③-|
②口⑤③ |④-⑤-|
口口口① |⑥-⑦-|
61
口口⑧口 |①-②-|
口⑦⑥④ |③-④-|
③⑤口② |⑤-⑥-|
①口口口 |⑦-⑧-|
62
口①口④ |①---|
①口④口 |②---|
口③口② |③---|
③口②口 |④---|
63
③口口⑥ |①-②-|
⑤口⑥④ |③-④-|
②⑤④① |--⑤-|
口口①口 |--⑥-|
64
口口口口 |--①-|
④⑥⑦口 |②-③-|
②口⑤③ |④-⑤-|
口口口① |⑥-⑦-|
65
口口口口 |①-②-|
⑥口口⑥ |③-④-|
⑤③④⑤ |⑤---|
①口口② |⑥---|
66
①口口① |①---|
口③③口 |--②③|
口②②口
口口口口

⑤④④口
口口口⑥
口口口口 |④---|
口口口口 |⑤-⑥-|
67
口口口③ |①---|
②口⑤口 |--②-|
①④口③ |③---|
②口口口 |④-⑤-|
68
口①口口 |①---|
口⑥⑦口 |--②③|
口口口⑤ |④-⑤-|
②③④口 |⑥-⑦-|
69
①口口② |①--②|
①口口② |--③-|
③口口口
③口口口

⑤口口口
⑤口⑥口
口口口④ |-④--|
口口口④ |⑤-⑥-|
70
口②③④ |①---|
⑤口口⑤ |--②③|
⑥①口⑥ |④---|
口口口口 |⑤-⑥-|
71
口③③口 |①---|
口口口⑤ |--②-|
④②②口 |③---|
①口口① |④-⑤-|
72
①口口口 |①---|
②③④口 |--②③|
口口口口 |④--⑤|
口⑤⑤⑥ |--⑥-|
73
口⑤口口 |①-②-|
②⑥口④ |③-④-|
①⑦口③ |--⑤-|
口口口口 |⑥-⑦-|
74
口口⑦口 |①-②-|
②口⑥④ |③-④-|
①口⑤③ |--⑤-|
口口口口 |⑥-⑦-|
75
口⑦口口 |①-②-|
②⑥口④ |③-④-|
①⑤口③ |--⑤-|
口口口口 |⑥-⑦-|
76
口口⑦口 |①-②-|
②口⑥④ |③-④-|
①口⑤③ |--⑤-|
口口口口 |⑥-⑦-|
77
口口口口 |①---|
口口口口 |----|
①口口① |----|
口口口口 |----|

不確定度: 0

最終更新:2017年03月29日 17:15