黒髪乱れし修羅となりて~凛edition~
日向美ビタースイーツ♪

BASIC

Level: 2
BPM: 150
Notes: 203

1
口口口口 |----|
口口口口 |----|
口口口口 |----|
口口口口 |----|
2
口口口口 |①---|
口口口口 |②---|
①口口② |----|
口口口口 |----|
3
口口口口 |①---|
①口口② |②---|
口口口口 |----|
口口口口 |----|
4
口口口口 |①---|
口口口口 |②---|
口①②口 |----|
口口口口 |----|
5
口口口口 |①---|
口①②口 |②---|
口口口口 |----|
口口口口 |----|
6
口口口口 |①---|
口口口口 |②---|
①①②② |----|
口口口口 |----|
7
口②②口 |①---|
口①①口 |②---|
口口口口 |----|
口口口口 |----|
8
口口口口 |①---|
口口口口 |②---|
①①②② |----|
口口口口 |----|
9
口②②口 |①---|
口①①口 |②---|
口口口口 |----|
口口口口 |----|
10
口口口口 |----|
①口口口 |----|
口口口口 |①---|
口口口口 |----|
11
口口口口 |①---|
口①②口 |----|
口口口口 |②---|
口口口口 |----|
12
口口口口 |①---|
口口口① |----|
口口口口 |----|
口口口口 |----|
13
口④口口 |①---|
口③口口 |②---|
口②口口 |③---|
口①口口 |④---|
14
口口①口 |①---|
口口口口 |----|
口口口② |②---|
口口口口 |----|
15
口口口口 |①---|
口口口口 |----|
口②①口 |②---|
口口口口 |----|
16
口口口口 |①---|
口②口口 |②---|
①口口口 |----|
口口口口 |----|
17
口口④口 |①---|
口口③口 |②---|
口口②口 |③---|
口口①口 |④---|
18
口口口口 |①---|
①口口② |----|
口口口口 |②---|
口口口口 |----|
19
①口口② |①---|
口口口口 |----|
口口口口 |②---|
口口口口 |----|
20
口口口口 |①---|
口①②口 |----|
口口口口 |②---|
口口口口 |----|
21
口①②口 |①---|
口口口口 |----|
口口口口 |②---|
口口口口 |----|
22
口口口口 |①---|
口口口口 |----|
①②口口 |②---|
口口口口 |----|
23
口口口口 |①---|
口③③口 |----|
口口①② |②---|
口口口口 |③---|
24
口①①口 |①---|
②口口口 |----|
口口口口 |②---|
口口口口 |----|
25
③口口口 |①---|
口①②口 |----|
口口口口 |②---|
口口口口 |③---|
26
口①口② |①---|
③口口口 |----|
口口口口 |②---|
口口口口 |③---|
27
口口②口 |①---|
口①口口 |----|
口口口口 |②---|
口口口口 |----|
28
口口口口 |①---|
口口口口 |----|
①②口口 |②---|
口口口口 |----|
29
口口口口 |①---|
口口口口 |----|
口②①口 |----|
口口口口 |②---|
30
②口口口 |①---|
口①口口 |----|
口口③口 |②---|
口口口口 |③---|
31
口口口② |①---|
口口①口 |----|
口③③口 |②---|
口口口口 |③---|
32
口口口口 |①---|
③①①③ |----|
②口口② |②---|
口口口口 |③---|
33
①口口① |①---|
口口口口 |----|
口口②口 |②---|
口口口口 |----|
34
口②③口 |①---|
口口口口 |----|
口①口口 |--②-|
口口口口 |③---|
35
口口口口 |①---|
①口②口 |----|
口口口口 |②---|
口口口口 |----|
36
口②③口 |①---|
口①口口 |----|
口口口口 |--②-|
口口口口 |③---|
37
口口口口 |①---|
口口口口 |----|
①口②口 |②---|
口口口口 |----|
38
口②③口 |①---|
口口口口 |----|
口①口口 |--②-|
口口口口 |③---|
39
口口口口 |①---|
①口口② |----|
口口口口 |②---|
口口口口 |----|
40
口②③口 |①---|
口①口口 |----|
口口口口 |--②-|
口口口口 |③---|
41
口口口口 |①---|
口②口口 |----|
口口①口 |②---|
口口口口 |----|
42
口①①口 |①---|
②口口口 |----|
口口口口 |②---|
口口口口 |----|
43
口口口口 |①---|
口①②口 |----|
口口口口 |②---|
口口口口 |----|
44
口口口口 |①---|
口口口① |----|
口口口口 |----|
口口口口 |----|
45
口④口口 |①---|
口③口口 |②---|
口②口口 |③---|
口①口口 |④---|
46
口口①口 |①---|
口口口口 |----|
口口口② |②---|
口口口口 |----|
47
口口口口 |①---|
口口口口 |----|
口②①口 |②---|
口口口口 |----|
48
口口口口 |①---|
口②口口 |②---|
①口口口 |----|
口口口口 |----|
49
口口④口 |①---|
口口③口 |②---|
口口②口 |③---|
口口①口 |④---|
50
口口口口 |①---|
①口口② |----|
口口口口 |②---|
口口口口 |----|
51
①口口② |①---|
口口口口 |----|
口口口口 |②---|
口口口口 |----|
52
口口口口 |①---|
口①②口 |----|
口口口口 |②---|
口口口口 |----|
53
口①②口 |①---|
口口口口 |----|
口口口口 |②---|
口口口口 |----|
54
口口口口 |①---|
口口口口 |----|
①②口口 |②---|
口口口口 |----|
55
口口口口 |①---|
口③③口 |----|
口口①② |②---|
口口口口 |③---|
56
口①①口 |①---|
②口口口 |----|
口口口口 |②---|
口口口口 |----|
57
口口口口 |①---|
口①②口 |----|
口口口口 |②---|
口口口口 |----|
58
口口口口 |①---|
口口口① |----|
口口②口 |②---|
口口口口 |----|
59
口口口口 |①---|
②口口口 |----|
口①口口 |②---|
口口口口 |----|
60
口口口口 |①---|
口口口口 |②---|
①②③④ |③---|
口口口口 |④---|
61
口口口口 |①---|
④③②① |②---|
口口口口 |③---|
口口口口 |④---|
62
口①②口 |①---|
口口口口 |----|
口口口口 |②---|
口口口口 |----|
63
①口口② |①---|
口口口口 |----|
口口口口 |②---|
口口口口 |----|
64
口口口口 |①---|
口口口口 |②---|
①②③④ |③---|
口口口口 |④---|
65
③④口口 |①---|
口口②① |②---|
口口口口 |③---|
口口口口 |④---|
66
口口①口 |①---|
③口口② |----|
口口口口 |②---|
口口口口 |③---|
67
口口②口 |①---|
口①口口 |----|
口口口口 |②---|
口口口口 |----|
68
口口口口 |①---|
口口口口 |----|
①②口口 |②---|
口口口口 |----|
69
口口口口 |①---|
口口口口 |----|
口②①口 |----|
口口口口 |②---|
70
②口口口 |①---|
口①口口 |----|
口口③口 |②---|
口口口口 |③---|
71
口口口② |①---|
口口①口 |----|
口③③口 |②---|
口口口口 |③---|
72
口口口口 |①---|
③①①③ |----|
②口口② |②---|
口口口口 |③---|
73
①口口① |①---|
口口口口 |②---|
口口口② |----|
口口口口 |----|
74
口口口口 |①---|
①口口② |②---|
口口口口 |----|
口口口口 |----|
75
口口口口 |①---|
口口口口 |②---|
口①②口 |----|
口口口口 |----|
76
口口口口 |①---|
口①②口 |②---|
口口口口 |----|
口口口口 |----|
77
①口口① |①---|
口口口口 |----|
口口口口 |----|
口口口口 |----|

不確定度: 0

最終更新:2017年03月29日 17:15