黒髪乱れし修羅となりて~凛edition~
日向美ビタースイーツ♪

EXTREME

Level: 9
BPM: 150
Notes: 828

1
口①口口 |----|
口口②口 |----|
口③口口 |----|
口口④口 |①②③④|
2
⑥⑦口口 |①②③-|
⑪③⑧⑤ |④⑤⑥-|
④⑨②⑫ |--⑦⑧|
口①⑩口 |⑨⑩⑪⑫|
3
⑥⑦口口 |①②③-|
⑪③⑧⑤ |④⑤⑥-|
④⑨②⑫ |--⑦⑧|
口①⑩口 |⑨⑩⑪⑫|
4
⑥⑦口口 |①②③-|
⑪③⑧⑤ |④⑤⑥-|
④⑨②⑫ |--⑦⑧|
口①⑩口 |⑨⑩⑪⑫|
5
⑥⑦口口 |①②③-|
⑪③⑧⑤ |④⑤⑥-|
④⑨②⑫ |--⑦⑧|
口①⑩口 |⑨⑩⑪⑫|
6
口口①口 |①②③-|
口②口④ |④⑤⑥-|
③口⑤口
口⑥口口

口口口口
口⑨⑩口
⑪口口⑫ |--⑦⑧|
⑦口口⑧ |⑨⑩⑪⑫|
7
⑦②②⑧ |①-②-|
③口口④ |③④⑤⑥|
口①①口 |-⑦⑧⑨|
⑤⑨⑩⑥ |⑩---|
8
口口①口 |①②③-|
口②口④ |④⑤⑥-|
③口⑤口
口⑥口口

口口口口
口⑨⑩口
⑪口口⑫ |--⑦⑧|
⑦口口⑧ |⑨⑩⑪⑫|
9
⑨②②⑩ |①-②-|
③口口④ |③④⑤⑥|
⑦①①⑧ |-⑦⑧⑨|
⑤口口⑥ |⑩---|
10
⑤口口口 |①---|
①④口① |--②-|
口口③口 |③-④-|
口②口口 |--⑤-|
11
口③③① |①---|
④⑤口口 |--②-|
口口口口 |--③-|
口②②口 |④-⑤-|
12
口口口③ |①-②-|
口口①② |③---|
口口口口
口口口口

口口口口
口口⑥口
⑤⑥口⑤ |④--⑤|
④口口④ |--⑥-|
13
口口①④ |①②③-|
口②口⑥ |④⑤⑥⑦|
⑦口③口
⑤口口口

⑨口口口
⑪⑮⑫口
口⑬⑭⑩ |⑧⑨⑩⑪|
口口口⑧ |⑫⑬⑭⑮|
14
口口口① |①---|
口口口口 |--②-|
口口口口
①口②口

口口口⑤
口口④口
口③口口 |③-④-|
口口口口 |--⑤-|
15
①口④口 |①---|
③⑤口③ |--②-|
口口口口 |--③-|
②口口② |④-⑤-|
16
④③口③ |①-②-|
口⑤口口 |③---|
⑥口①口 |④-⑤-|
②⑦②口 |⑥-⑦-|
17
口口口④ |①②③-|
口口①⑥ |④⑤⑥⑦|
⑦②口口
⑤口③口

⑨口口口
⑪⑮⑫口
口⑬⑭⑩ |⑧⑨⑩⑪|
口口口⑧ |⑫⑬⑭⑮|
18
④口口① |①---|
④口口口 |--②③|
⑥口口③ |④---|
①②⑤口 |--⑤⑥|
19
口口②① |①---|
③口口① |--②③|
口口口口
口口口口

⑤口口口
口口口⑤
口口⑤④ |④---|
口口口④ |⑤---|
20
口①口口 |①---|
口口①口 |--②③|
①①口③
口②口口

④⑤口口
④口口⑥
口口口口 |④---|
口口口口 |--⑤⑥|
21
口口口口 |①---|
口③口口 |--②③|
①口②口
①口口口

⑤口④④
⑦口口⑥
⑨口口⑧ |④⑤⑥⑦|
⑪口口⑩ |⑧⑨⑩⑪|
22
口②口口 |①--②|
口口口口 |--③④|
口口口④
口③①口

⑤口口口
⑤口口口
⑦口口口 |⑤---|
口口⑥口 |--⑥⑦|
23
口口②① |①---|
③口口① |--②③|
口口口口
口口口口

⑤口口口
口口口⑤
口口⑤④ |④---|
口口口④ |⑤---|
24
④①⑤口 |①---|
④⑥①③ |--②③|
①①口口 |④---|
口②口口 |--⑤⑥|
25
⑦口口⑥ |①-②③|
⑤口口④ |④⑤⑥⑦|
③口口②
口口①①

口口口口
口口⑩口
口⑧⑧口 |⑧---|
⑩⑨口⑨ |⑨-⑩-|
26
口口口口 |①---|
①口口口 |--②③|
口③口②
口口①口

⑤口⑤④
⑥口⑥④
口口口口 |④---|
口口口口 |⑤-⑥-|
27
口口口口 |①---|
口口口口 |--②-|
口②②口
①①①口

口⑩③口
⑨口口④
⑧口口⑤ |③④⑤⑥|
口⑦⑥口 |⑦⑧⑨⑩|
28
口口②口 |①---|
口①①③ |--②③|
⑤④口⑥ |④-⑤-|
⑦⑤⑥⑦ |⑥-⑦-|
29
①①③② |①②③④|
④④⑥⑤ |⑤⑥⑦⑧|
⑦⑦口⑧
口口口口

⑬⑭⑮⑯
口口口口
口口⑨口 |⑨⑩⑪⑫|
⑩⑩⑫⑪ |⑬⑭⑮⑯|
30
口口口口 |①---|
口①①口 |--②③|
②口③口
口口口口

④⑤口⑤
④⑥口⑥
口口口口 |④---|
口口口口 |⑤-⑥-|
31
口口口口 |①---|
口口口口 |--②-|
口②②口
口①①①

口⑩③口
⑨口口④
⑧口口⑤ |③④⑤⑥|
口⑦⑥口 |⑦⑧⑨⑩|
32
口口②口 |①---|
口①①③ |--②③|
口口口口
口口口口

口口口口
口⑥⑤口
⑤④口口 |④--⑤|
⑥⑤口口 |--⑥-|
33
口口口③ |①--②|
②口④口 |-③④⑤|
口⑤①口
口口②①

⑧口⑥口
口⑨口口
口口⑩⑥ |⑥--⑦|
口⑦口口 |-⑧⑨⑩|
34
口①口口 |①--②|
④口口口 |-③④⑤|
①口口⑤
口口②③

⑥⑧⑧⑦
口⑧⑦⑧
⑧⑧口口 |⑥-⑦-|
⑧⑧口口 |⑧---|
35
口口口③ |①--②|
②口④口 |-③④⑤|
口⑤①口
口口②①

⑧口⑥口
口⑨口口
口口⑩⑥ |⑥--⑦|
口⑦口口 |-⑧⑨⑩|
36
口①口口 |①--②|
④口口口 |-③④⑤|
①口口⑤
口口②③

⑥⑧⑧⑦
口⑧⑦⑧
⑧⑧口口 |⑥-⑦-|
⑧⑧口口 |⑧---|
37
口口口③ |①--②|
②口④口 |-③④⑤|
口⑤①口
口口②①

⑧口⑥口
口⑨口口
口口⑩⑥ |⑥--⑦|
口⑦口口 |-⑧⑨⑩|
38
口①口口 |①--②|
④口口口 |-③④⑤|
①口口⑤
口口②③

⑥⑧⑧⑦
口⑧⑦⑧
⑧⑧口口 |⑥-⑦-|
⑧⑧口口 |⑧---|
39
口口口③ |①--②|
②口④口 |-③④⑤|
口⑤①口
口口②①

⑧口⑥口
口⑨口口
口口⑩⑥ |⑥--⑦|
口⑦口口 |-⑧⑨⑩|
40
口①口口 |①--②|
④口口口 |-③④⑤|
①口口⑤
口口②③

⑥⑧⑧⑦
口⑧⑦⑧
⑧⑧口口 |⑥-⑦-|
⑧⑧口口 |⑧---|
41
口口口口 |①---|
口口口口 |----|
口口①口
口口①口

口口口口
⑤⑨⑧④
③⑦⑥② |②③④⑤|
口口口口 |⑥⑦⑧⑨|
42
⑤①①口 |①---|
口④口口 |--②-|
口口③口 |③-④-|
口②口口 |--⑤-|
43
口③③① |①---|
④⑤口口 |--②-|
口口口口 |--③-|
口②②口 |④-⑤-|
44
口口口③ |①-②-|
口口①② |③---|
口口口口
口口口口

口口口口
口口⑥口
⑤⑥口⑤ |④--⑤|
④口口④ |--⑥-|
45
口口①④ |①②③-|
口②口⑥ |④⑤⑥⑦|
⑦口③口
⑤口口口

⑨口口口
⑪⑮⑫口
口⑬⑭⑩ |⑧⑨⑩⑪|
口口口⑧ |⑫⑬⑭⑮|
46
口口口① |①---|
口口口口 |--②-|
口口口口
①口②口

口口口⑤
口口④口
口③口口 |③-④-|
口口口口 |--⑤-|
47
①口④口 |①---|
③⑤口③ |--②-|
口口口口 |--③-|
②口口② |④-⑤-|
48
④③口③ |①-②-|
口⑤口口 |③---|
⑥口①口 |④-⑤-|
②⑦②口 |⑥-⑦-|
49
口口口④ |①②③-|
口口①⑥ |④⑤⑥⑦|
⑦②口口
⑤口③口

⑨口口口
⑪⑮⑫口
口⑬⑭⑩ |⑧⑨⑩⑪|
口口口⑧ |⑫⑬⑭⑮|
50
④口口① |①---|
④口口口 |--②③|
⑥口口③ |④---|
①②⑤口 |--⑤⑥|
51
口口②① |①---|
③口口① |--②③|
口口口口
口口口口

⑤口口口
口口口⑤
口口⑤④ |④---|
口口口④ |⑤---|
52
口①口口 |①---|
口口①口 |--②③|
①①口③
口②口口

④⑤口口
④口口⑥
口口口口 |④---|
口口口口 |--⑤⑥|
53
口口口口 |①---|
口③口口 |--②③|
①口②口
①口口口

⑤口④④
⑦口口⑥
⑨口口⑧ |④⑤⑥⑦|
⑪口口⑩ |⑧⑨⑩⑪|
54
口②口口 |①--②|
口口口口 |--③④|
口口口④
口③①口

⑤口口口
⑤口口口
⑦口口口 |⑤---|
口口⑥口 |--⑥⑦|
55
口口②① |①---|
③口口① |--②③|
口口口口
口口口口

⑤口口口
口口口⑤
口口⑤④ |④---|
口口口④ |⑤---|
56
④①⑤口 |①---|
④⑥①③ |--②③|
①①口口 |④---|
口②口口 |--⑤⑥|
57
⑦口口⑥ |①-②③|
⑤口口④ |④⑤⑥⑦|
③口口②
口口①①

口口口口
口口口口
口⑧⑧口 |⑧---|
口⑨⑨口 |⑨---|
58
口①①口 |①---|
口②口口 |②---|
口口口③ |③---|
④口口口 |④---|
59
①①口口 |①-②-|
口口口② |--③-|
口口口口
口③口口

⑤⑤⑤口
口口口口
口④口口 |--④-|
口口口口 |--⑤-|
60
口口口口 |--①②|
⑥②⑤① |③④⑤⑥|
口口口口
口④口③

口口口⑬
口口口⑬
⑩⑫⑨⑪ |⑦⑧⑨⑩|
⑧口⑦口 |⑪⑫⑬-|
61
①①口口 |①-②③|
③口②口 |④⑤⑥⑦|
⑦口⑥口
⑤口④口

⑫⑩⑨⑪
⑭口口⑬
口口口⑧ |⑧-⑨⑩|
口口口⑧ |⑪⑫⑬⑭|
62
口口口口 |①---|
口口②口 |②---|
③口口口 |③---|
口①①④ |④---|
63
①①口口 |①-②-|
口口口② |--③-|
口口口口
口③口口

⑤⑤⑤口
口口口口
口④口口 |--④-|
口口口口 |--⑤-|
64
口口口口 |--①②|
⑥②⑤① |③④⑤⑥|
口口口口
口④口③

口口口⑬
口口口⑬
⑩⑫⑨⑪ |⑦⑧⑨⑩|
⑧口⑦口 |⑪⑫⑬-|
65
①①口口 |①-②③|
③⑨②口 |④⑤⑥⑦|
⑦⑧⑥⑧ |⑧---|
⑤⑧④⑧ |⑨---|
66
④①口③ |①---|
口口⑤口 |--②-|
口口②口 |③---|
口口口口 |④-⑤-|
67
口②口④ |①---|
口⑤口口 |--②-|
口口③口 |③---|
口①口口 |④-⑤-|
68
口口口口 |①---|
②口口口 |--②-|
口口口口
口口①口

口口口口
口口④口
口口口⑤ |③-④-|
口③⑥口 |⑤-⑥-|
69
①①③② |①②③④|
④④⑥⑤ |⑤⑥⑦⑧|
⑦⑦口⑧
口口口口

⑬⑭⑮⑯
口口口口
口口⑨口 |⑨⑩⑪⑫|
⑩⑩⑫⑪ |⑬⑭⑮⑯|
70
口口口口 |①---|
口①①口 |--②③|
②口③口
口口口口

④⑤口⑤
④⑥口⑥
口口口口 |④---|
口口口口 |⑤-⑥-|
71
口口口口 |①---|
口口口口 |--②-|
口②②口
口①①①

口⑩③口
⑨口口④
⑧口口⑤ |③④⑤⑥|
口⑦⑥口 |⑦⑧⑨⑩|
72
⑤口②⑤ |①---|
口①①③ |--②③|
口④口口 |④--⑤|
⑥口口⑥ |--⑥-|
73
⑥⑦口口 |①②③-|
⑪③⑧⑤ |④⑤⑥-|
④⑨②⑫ |--⑦⑧|
口①⑩口 |⑨⑩⑪⑫|
74
⑥⑦口口 |①②③-|
⑪③⑧⑤ |④⑤⑥-|
④⑨②⑫ |--⑦⑧|
口①⑩口 |⑨⑩⑪⑫|
75
⑥⑦口口 |①②③-|
⑪③⑧⑤ |④⑤⑥-|
④⑨②⑫ |--⑦⑧|
口①⑩口 |⑨⑩⑪⑫|
76
⑥⑦口口 |①②③-|
⑪③⑧⑤ |④⑤⑥-|
④⑨②⑫ |--⑦⑧|
口①⑩口 |⑨⑩⑪⑫|
77
口口①① |①---|
口口口口 |----|
口口口口 |----|
①①口口 |----|

不確定度: 0

最終更新:2017年03月29日 17:14