Towards the TOWER
SHAMDEL

BASIC

Level: 5
BPM: 132
Notes: 326

1
口口口口 |----|
口口口口 |----|
口口口口 |----|
口口口口 |----|
2
②口口② |①---|
口①①口 |----|
口①①口 |②--③|
口③③口 |----|
3
④口口④ |-①-②|
②口口② |----|
①口口① |---③|
口③③口 |--④-|
4
口口口口 |--①-|
口①①口 |----|
③①①③ |②--③|
②④④② |--④-|
5
①口口① |--①-|
口口口口 |----|
口口口口 |----|
口口口口 |----|
6
⑦口口⑧ |①-②-|
⑤口口⑥ |③-④-|
③口口④ |⑤-⑥-|
①口口② |⑦-⑧-|
7
口⑦⑧口 |①-②-|
口⑤⑥口 |③-④-|
口③④口 |⑤-⑥-|
口①②口 |⑦-⑧-|
8
①口口② |①-②-|
③口口④ |③-④-|
⑤口口⑥ |⑤-⑥-|
⑦口口⑧ |⑦-⑧-|
9
口①②口 |①-②-|
口③④口 |③-④-|
口⑤⑥口 |⑤-⑥-|
口⑦⑧口 |⑦-⑧-|
10
口口⑥口 |①---|
口⑤口口 |--②-|
口口④口 |③-④-|
①③口② |⑤-⑥-|
11
①口口口 |①--②|
口口口口 |----|
②口口口 |----|
口③口口 |--③-|
12
③口口② |①--②|
口口④口 |--③-|
口⑥口① |④--⑤|
口口⑤口 |--⑥-|
13
口②①口 |①-②-|
口口口口 |----|
口口口口 |----|
口口口口 |----|
14
口⑤口口 |----|
口口④口 |--①-|
口③口口 |②-③-|
①口②口 |④-⑤-|
15
口口口① |①--②|
口口③口 |--③-|
口口口② |----|
口口④口 |--④-|
16
②口口③ |①--②|
口⑤口口 |--③-|
①口⑥口 |④--⑤|
口④口口 |--⑥-|
17
口①②口 |①-②-|
口口口口 |----|
口口口口 |----|
口口口口 |----|
18
口口⑤口 |----|
口④口口 |--①-|
口口③口 |②-③-|
口②口① |④-⑤-|
19
①口口口 |①--②|
口③口口 |--③-|
②口口口 |----|
口④口口 |--④-|
20
③口口② |①--②|
口口④口 |--③-|
口⑥口① |④--⑤|
口口⑤口 |--⑥-|
21
口②①口 |①-②-|
③口口③ |----|
口口口口 |----|
口口口口 |③---|
22
口⑤口口 |----|
口口④口 |--①-|
口③口口 |②-③-|
①口②口 |④-⑤-|
23
口口口① |①--②|
口口③口 |--③-|
口口口② |----|
口口④口 |--④-|
24
②口口③ |①--②|
口⑤口口 |--③-|
①口⑥口 |④--⑤|
口④口口 |-⑥--|
25
口①②口 |①-②-|
口口口口 |----|
口口口口 |----|
口口口口 |----|
26
④口口④ |①--②|
③口口③ |--③-|
②口口② |-④--|
①口口① |----|
27
口①①口 |①--②|
口②②口 |--③-|
口③③口 |-④--|
口④④口 |----|
28
口口口口 |----|
口口口口 |----|
口口口口 |----|
口①口口 |--①-|
29
口口口口 |①---|
口②③口 |--②-|
④口口口 |③--④|
口口①口 |----|
30
①②③④ |①-②-|
⑤⑥⑦⑧ |③-④-|
口口口口 |⑤-⑥-|
口口口口 |⑦-⑧-|
31
口口口口 |①-②-|
口口口口 |③-④-|
①②③④ |⑤-⑥-|
⑤⑥⑦⑧ |⑦-⑧-|
32
口口口口 |①-②-|
⑦③④⑧ |③-④-|
⑤①②⑥ |⑤-⑥-|
口口口口 |⑦-⑧-|
33
口⑦⑧口 |①-②-|
口⑤⑥口 |③-④-|
口③④口 |⑤-⑥-|
口①②口 |⑦-⑧-|
34
①口口② |①---|
口口口口 |----|
口口口口 |②---|
口口口口 |----|
35
口口口口 |①---|
口口口口 |----|
口①①口 |----|
口口口口 |----|
36
口口口口 |①---|
口①①口 |----|
口口口口 |----|
②口口口 |②---|
37
|①---|
口口口口 |----|
口口口口 |----|
口口口口 |----|
38
口②② |①---|
口口③③ |②---|
口口④④ |③---|
口口口口 |④---|
39
口口口口 |①---|
口②口口 |----|
口口口口 |②---|
口口①① |----|
40
口口口口 |----|
口口口口 |----|
口口口口 |----|
口口口① |①---|
41
|①---|
口口口口 |----|
口口口口 |----|
口口口口 |----|
42
②②口 |①---|
③③口口 |②---|
④④口口 |③---|
口口口口 |④---|
43
口口口口 |①---|
口口②口 |----|
口口口口 |②---|
①①口口 |----|
44
④口口④ |①---|
③口口③ |②---|
②口口② |③---|
①口口① |④---|
45
口②④口 |①---|
口口口口 |②---|
口口口口 |③---|
口③①口 |④---|
46
②口口④ |①---|
口口口口 |②---|
口口口口 |③---|
③口口① |④---|
47
口①①口 |①---|
口口口口 |----|
口②②口 |②---|
口口口口 |----|
48
口口口① |①---|
口②口口 |②---|
口口③口 |③---|
④口口口 |④---|
49
口口口口 |①---|
口口口口 |----|
口口口口 |----|
口口①① |--|
50
①①口口 |①---|
口口口口 |----|
口口口口 |---②|
口②②口 |---|
51
口口口口 |①---|
①口口① |----|
口口口口 |----|
口口口口 |----|
52
口口口口 |----|
口口口口 |----|
口口口口 |----|
口口口口 |----|
53
口③③口 |①---|
口口口口 |②--③|
②口口② |----|
①口口① |----|
54
③口口③ |①---|
口口口口 |②--③|
口②②口 |----|
口①①口 |----|
55
口③③口 |①---|
口口口口 |②--③|
②口口② |----|
①口口① |----|
56
③口口③ |①---|
口口口口 |②--③|
口②②口 |----|
口①①口 |----|
57
口口口口 |①---|
①①③③ |②---|
口口口口 |③---|
口④②口 |④---|
58
口③③口 |①---|
口口口口 |②---|
口①①口 |③---|
口口②口 |----|
59
口口口口 |①---|
①①③③ |②---|
口口口口 |③---|
口④②口 |④---|
60
口①①口 |①---|
口口④口 |②---|
口③口口 |③---|
口口②口 |④---|
61
⑦口口⑧ |①-②-|
⑤口口⑥ |③-④-|
③口口④ |⑤-⑥-|
①口口② |⑦-⑧-|
62
口⑦⑧口 |①-②-|
口⑤⑥口 |③-④-|
口③④口 |⑤-⑥-|
口①②口 |⑦-⑧-|
63
①口口② |①-②-|
③口口④ |③-④-|
⑤口口⑥ |⑤-⑥-|
⑦口口⑧ |⑦-⑧-|
64
口①口口 |①--②|
口④④口 |--③-|
口③③口 |-④--|
⑤②②⑤ |⑤---|
65
口①①口 |①---|
口口口口 |----|
口口口口 |----|
口口口口 |----|

不確定度: 0

最終更新:2016年04月18日 01:52