Towards the TOWER
SHAMDEL

ADVANCED

Level: 9
BPM: 132
Notes: 560

1
口口口口 |----|
口口口口 |----|
口口口口 |----|
口口口口 |----|
2
②口口② |①---|
口口口口 |----|
口口口口 |②--③|
③①①③ |----|
3
④②②④ |-①-②|
口口口口 |----|
口口口口 |---③|
③①①③ |--④-|
4
④口口④ |--①-|
口口口口 |----|
③①①③ |②--③|
②口口② |--④-|
5
②口口③ |--①-|
口①①口 |----|
口①①口 |-②-③|
④⑤⑥口 |-④⑤⑥|
6
口⑦⑥⑤ |①②③④|
口口口口 |-⑤⑥⑦|
①②③④
口口口口

口口口口
口⑨⑧⑩
⑪⑫⑬口 |⑧⑨-⑩|
口口口口 |-⑪⑫⑬|
7
⑤⑥⑦口 |①②③④|
口口口口 |-⑤⑥⑦|
口口口口
①②③④

口口口口
⑩⑧⑨口
口口口口 |⑧⑨-⑩|
口⑬⑫⑪ |-⑪⑫⑬|
8
⑤⑥⑦口 |①②③④|
口口口口 |-⑤⑥⑦|
④③②①
口口口口

口口口口
⑩⑧⑨口
口⑬⑫⑪ |⑧⑨-⑩|
口口口口 |-⑪⑫⑬|
9
⑤⑥⑦口 |①②③④|
口口口口 |-⑤⑥⑦|
口口口口
④③②①

口口口口
⑩⑧⑨口
口口口口 |⑧⑨-⑩|
口⑬⑫⑪ |-⑪⑫⑬|
10
口⑦口⑤ |①---|
口④口① |-②③④|
口口③口 |⑤-⑥-|
②⑧⑥口 |⑦-⑧-|
11
口口①口 |①--②|
②口口③ |--③-|
口④⑤口 |④⑤-⑥|
⑥口⑧⑦ |--⑦⑧|
12
③口⑤② |①--②|
口口口口 |--③-|
⑥口口口 |④--⑤|
口①口④ |--⑥-|
13
口口口口 |①-②③|
口口⑤④ |--④⑤|
口②③口
口口①口

口口口⑧
⑦⑥口口
口口口口 |⑥⑦-⑧|
口⑨⑩⑪ |-⑨⑩⑪|
14
④①⑥口 |--①-|
口口③口 |--②③|
口②口口 |④-⑤-|
口⑤⑦口 |⑥-⑦-|
15
口①口口 |①--②|
③口口② |--③-|
口⑤④口 |④⑤-⑥|
⑦⑧口⑥ |--⑦⑧|
16
②⑤口③ |①--②|
口口口口 |--③-|
口口口⑥ |④--⑤|
④口①口 |--⑥-|
17
⑤⑥⑦⑧ |①-②③|
⑨⑩⑪⑫ |---④|
口③②口 |⑤⑥⑦⑧|
口①口④ |⑨⑩⑪⑫|
18
②口⑦④ |①--②|
口口口口 |--③-|
①口③口 |④-⑤⑥|
口⑥⑤口 |--⑦-|
19
口③口口 |①--②|
②口口口 |--③-|
口口口口
①口口口

口口口口
口口⑧口
口④⑤口 |④⑤-⑥|
⑥口口⑦ |⑦-⑧-|
20
③①⑤② |①--②|
口口口口 |--③-|
⑥口口口 |④--⑤|
口口口④ |--⑥-|
21
口⑤④口 |①-②③|
⑨⑧⑦⑥ |--④⑤|
⑬⑫⑪⑩ |⑥⑦⑧⑨|
②口①③ |⑩⑪⑫⑬|
22
④②⑥口 |①--②|
口口口口 |--③-|
口口口口 |④-⑤-|
③⑤⑦① |⑥-⑦-|
23
口①口① |①--②|
②口②口 |--③-|
口③口③
口口口口

口④④口
口口口口
口口口口 |--④-|
⑤⑥口口 |--⑤⑥|
24
②口口③ |①--②|
口⑥⑤口 |--③-|
口口口⑦ |④-⑤⑥|
④口①口 |-⑦--|
25
③口口口 |①-②③|
④⑩⑨⑧ |-④-⑤|
⑤⑦②口 |---⑥----⑦---|
⑥①口口 |⑧-⑨-⑩-|
26
④④口口 |①--②|
③口口③ |--③-|
②⑤⑤② |-④--|
口口①① |--⑤-|
27
口口④④ |①--②|
③口口③ |--③-|
②口口② |-④--|
①①口口 |----|
28
②口口④ |①--②|
口口口口 |----|
⑤⑥⑦口 |③--④|
口①③口 |-⑤⑥⑦|
29
口⑥口⑦ |①---|
②③④⑤ |-②③④|
口口口① |⑤⑥-⑦|
⑧⑨⑩口 |-⑧⑨⑩|
30
④⑤⑥⑦ |①-②③|
口②③口 |④⑤⑥⑦|
口口口口
口口口①

口口口口
⑧⑫⑬⑨
⑩⑭⑮⑪ |⑧⑨⑩⑪|
口口口口 |⑫⑬⑭⑮|
31
①②③④ |①②③④|
⑦⑧口口 |⑤⑥⑦⑧|
口口口口
⑤⑥口口

口⑮⑯口
口口⑫⑪
口⑬⑭口 |⑨⑩⑪⑫|
口口⑩⑨ |⑬⑭⑮⑯|
32
①⑨⑪③ |①-②-③-|
口⑤⑦口 |④-⑤-⑥-|
②⑩⑫④ |⑦-⑧-⑨-|
口⑥⑧口 |⑩-⑪-⑫-|
33
⑬口口口 |①②③④|
①②③④ |⑤⑥⑦⑧|
⑨⑩⑪⑫ |⑨⑩⑪⑫|
⑤⑥⑦⑧ |⑬---|
34
③①①③ |①--②|
口口口口 |----|
口口口口 |③--④|
④②②④ |----|
35
口口口口 |①---|
口①①口 |----|
口①①口 |----|
口口口口 |----|
36
口口口口 |①---|
①口口① |----|
①口口① |----|
口口口② |②---|
37
|①---|
口口口口 |----|
口口口口 |----|
口口口口 |----|
38
口口② |①---|
口⑥③口 |②-③-|
口④⑦口 |④-⑤-|
⑤口口口 |⑥-⑦-|
39
口口口口 |①---|
口口口口 |--②-|
②口④③ |③---|
口口口① |④---|
40
口①口口 |①---|
②口口口 |②---|
口③口口 |③---|
④口口口 |④---|
41
|①---|
口口口口 |----|
口口口口 |----|
口口口口 |----|
42
②口口 |①---|
口③⑥口 |②-③-|
口⑦④口 |④-⑤-|
口口口⑤ |⑥-⑦-|
43
④口口④ |①---|
口口口口 |--②-|
③口口② |③---|
①口口口 |④---|
44
口④④口 |①---|
口③③口 |②---|
口②②口 |③---|
口①①口 |④---|
45
④⑧⑤① |①-②-|
口口口口 |③-④-|
口③②口 |⑤-⑥-|
口⑦⑥口 |⑦-⑧-|
46
④⑧⑤① |①-②-|
口口口口 |③-④-|
口③②口 |⑤-⑥-|
口⑦⑥口 |⑦-⑧-|
47
⑧口口⑤ |①-②-|
④口口① |③-④-|
口口口口 |⑤-⑥-|
③⑦⑥② |⑦-⑧-|
48
口④①口 |①-②-|
⑧口口⑤ |③-④-|
口③②口 |⑤-⑥-|
口⑦⑥口 |⑦-⑧-|
49
口口①① |①--②|
口口③③ |--③-|
口口②② |----|
口口口口 |--|
50
①①口口 |①--②|
③③口口 |--③-|
②②口口 |---④|
口④④口 |---|
51
①⑤⑥② |①-②-|
③⑦⑧④ |③-④-|
口⑨⑩口 |⑤⑥⑦⑧|
口⑪⑫口 |⑨⑩⑪⑫|
52
口口口口 |----|
口口口口 |----|
口口口口 |----|
口口口口 |----|
53
口口口口 |①②-③|
口口⑥⑤ |④-⑤⑥|
③④口口
口口②①

⑦⑧⑨⑩
口口口口
口⑪口口 |-⑦⑧⑨|
口口⑫口 |⑩-⑪⑫|
54
口口口口 |①②-③|
⑤⑥口口 |④-⑤⑥|
口口④③
①②口口

⑩⑨⑧⑦
口口口口
口口⑪口 |-⑦⑧⑨|
口⑫口口 |⑩-⑪⑫|
55
口口口口 |①②-③|
口口⑥⑤ |④-⑤⑥|
③④口口
口口②①

⑦⑧⑨⑩
口口口口
口⑪⑫口 |-⑦⑧⑨|
口口口口 |⑩-⑪⑫|
56
口口口口 |①②③④|
⑤⑥⑦⑧ |⑤⑥⑦⑧|
口口口口
①②③④

口⑨⑨口
口口口口
口⑩⑩口 |---⑨|
⑪⑫口口 |-⑩⑪⑫|
57
口口⑤口 |①--②|
⑥④③口 |--③-|
②口口口 |④--⑤|
口口①口 |--⑥-|
58
口口口口 |①--②|
口④①口 |--③-|
口②⑥⑤ |④---|
口口③口 |--⑤⑥|
59
口③口口 |①--②|
口口②口 |--③-|
口①口口
口口口口

口口⑥④
口口口口
口⑤口口 |④--⑤|
口口口口 |--⑥-|
60
②口口② |①--②|
口①口口 |-③-④|
口口口口
③④④③

口⑦⑦口
口⑥⑥口
口⑤⑤口 |-⑤-⑥|
口口口口 |-⑦--|
61
⑮⑭⑬⑫ |①②③④|
⑪⑩⑨⑧ |-⑤⑥⑦|
口⑦⑥⑤ |⑧⑨⑩⑪|
①②③④ |⑫⑬⑭⑮|
62
口口口口 |①②③④|
口口口口 |-⑤⑥⑦|
④③②①
⑤⑥⑦口

⑩口口口
口⑧⑨口
口⑬⑫⑪ |⑧⑨-⑩|
口口口口 |-⑪⑫⑬|
63
⑤⑥⑦口 |①②③④|
⑧⑨⑩⑪ |-⑤⑥⑦|
⑫⑬⑭⑮ |⑧⑨⑩⑪|
④③②① |⑫⑬⑭⑮|
64
口口口口 |①②③④|
口⑤⑤口 |--⑤-|
口口口口
①②③④

⑥口口⑥
口口口口
⑧口口⑧ |-⑥--|
口⑦⑦口 |⑦-⑧-|
65
口①①口 |①-②-|
口口口口 |----|
口口口口 |----|
②口口② |----|

不確定度: 0

最終更新:2016年04月18日 01:51