Towards the TOWER
SHAMDEL

EXTREME

Level: 10
BPM: 132
Notes: 772

1
口口口口 |----|
口口口口 |----|
口口口口 |----|
口口口口 |----|
2
②口口③ |①-②③|
⑥口口口 |-④⑤⑥|
口⑤口口
④①①口

口口口口
口⑨⑦⑦
⑨口⑧⑩ |⑦⑧-⑨|
口⑫⑪口 |-⑩⑪⑫|
3
④④②② |①②③④|
口⑦③口 |-⑤⑥⑦|
口口⑥口
①口口⑤

⑭口⑬⑬
口口⑫⑩
⑧⑨口口 |⑧⑨⑩⑪|
⑪⑪口口 |-⑫⑬⑭|
4
口①口口 |①②③④|
③③口⑤ |-⑤⑥⑦|
口④⑥②
口⑦口口

⑩⑩⑧⑧
口口⑨⑬
⑫⑫口口 |⑧⑨-⑩|
口口口⑪ |-⑪⑫⑬|
5
④⑥口⑤ |--①②③---|
④口⑦⑤ |----|
口⑧口口 |-④-⑤|
①②③口 |-⑥⑦⑧|
6
口⑦④⑥ |①②③④|
口③口口 |-⑤⑥⑦|
口口②口
⑤口口①

⑩口口口
口口⑧⑪
⑫⑬⑭⑨ |⑧⑨-⑩|
口口口口 |--⑪-⑫⑬⑭-|
7
⑪⑥③④ |①②③④|
⑩②⑦⑬ |-⑤⑥⑦|
⑩⑫口⑧ |⑧⑨-⑩|
①口⑨⑤ |-⑪⑫⑬|
8
⑩⑦④⑥ |①②③④|
⑫③⑧口 |-⑤⑥⑦|
口⑬②⑨ |⑧⑨-⑩|
⑤口⑪① |-⑪⑫⑬|
9
口⑥③④ |①②③④|
口②⑦口 |-⑤⑥⑦|
口口口口
①口口⑤

口口口口
⑩口口口
⑩⑫⑬⑧ |⑧⑨-⑩|
⑪口⑨口 |-⑪⑫⑬|
10
口口口② |①---|
口口口① |-②③④|
口口口口
④口口③

⑤⑦⑧口
⑦口⑥⑧
口口口⑥ |⑤-⑥-|
口口口口 |⑦-⑧-|
11
⑥④⑤③ |①--②|
口①口口 |--③-|
①⑧口口 |④⑤-⑥|
⑦②②口 |--⑦⑧|
12
口②③口 |①--②|
②口①③ |--③-|
⑤口口④ |④--⑤|
⑥⑤④⑥ |--⑥-|
13
⑤②③④ |①-②③|
口①①口 |--④⑤|
口②③口
口口口口

口口口口
⑨口⑧口
⑦⑩口⑥ |⑥⑦-⑧|
口口⑪口 |-⑨⑩⑪|
14
口①口口 |--①-|
口口口口 |--②③|
口口口口
②口口③

口⑦⑥④
⑦⑤口⑥
⑤口口口 |④-⑤-|
口口口口 |⑥-⑦-|
15
③⑥⑤⑦ |①--②|
口口①口 |--③④|
口④⑨① |⑤⑥-⑦|
口②②⑧ |--⑧⑨|
16
口③②口 |①--②|
③①口② |--③-|
④口口⑤ |④--⑤|
⑥④⑤⑥ |--⑥-|
17
口③②口 |①-②③|
口①①口 |---④|
口③②口
口口④口

⑤口⑨口
口⑩口⑥
⑦口⑪口 |⑤⑥⑦⑧|
口⑫口⑧ |⑨⑩⑪⑫|
18
②口口口 |①--②|
③口口口 |-③④-|
口②口①
口口④④

⑧⑧⑤⑦
口口⑦⑤
口口口口 |⑤-⑥⑦|
⑥口口口 |--⑧-|
19
口口口③ |①--②|
口①口口 |--③-|
①口口口
口②②口

⑥④⑤口
口口口口
口口口口 |④⑤-⑥|
口⑧口⑦ |⑦-⑧-|
20
口②③口 |①--②|
②口①③ |--③-|
口口口口
口口口口

口口口口
⑦口口口
⑤口口④ |④--⑤|
口⑤④⑥ |--⑥⑦|
21
口②③口 |①-②③|
口口口① |--④⑤|
⑤②③口
口④口口

⑧口口⑥
⑫⑨⑦口
口⑬口⑩ |⑥⑦⑧⑨|
口口⑪口 |⑩⑪⑫⑬|
22
③②①⑦ |①--②|
口⑤口口 |--③-|
口口②口 |④-⑤-|
⑥口口④ |⑥-⑦-|
23
口①②口 |①--②|
①③③② |--③-|
②③③①
口②①口

口口口④
④口口口
口口口④ |--④-|
④⑤⑥口 |--⑤⑥|
24
口③②口 |①--②|
③口口② |--③-|
口口口口
口口口①

口口口口
口⑥⑤口
④⑥⑤口 |④-⑤⑥|
⑦④口⑦ |-⑦--|
25
①②③① |①-②③|
②口口③ |-④-⑤|
口⑤⑤口
口④④口

口口⑩⑦
口口⑧⑨
⑥口口⑥ |---⑥----⑦---|
口口口口 |⑧-⑨-⑩-|
26
⑦⑥⑦⑨ |①-②③|
⑤④⑤⑩ |-④⑤-|
⑪③②③ |⑥⑦-⑧|
⑧①⑫① |⑨⑩⑪⑫|
27
口口口口 |①-②③|
⑤④⑤口 |-④⑤-|
口③②③
口①口①

⑦⑥⑦⑨
口口口⑩
⑪口口口 |⑥⑦-⑧|
⑧⑫口口 |⑨⑩⑪⑫|
28
②口口口 |①--②|
口口口④ |③--④|
口③口口
口口口①

口⑥口口
⑨口口口
⑦⑩⑧口 |⑤--⑥|
口口⑤口 |⑦⑧⑨⑩|
29
口口⑥① |①--②|
口⑤②口 |③④⑤⑥|
口口口口
口④口③

口⑧口口
口口⑫⑦
口口口⑪ |⑦⑧-⑨|
⑨口⑩口 |-⑩⑪⑫|
30
②③④① |①---②③④-|
⑤口口口 |⑤⑥⑦⑧|
口⑥⑦口
口口口⑧

⑮⑯⑰口
⑱⑲⑳⑭
⑨口口⑩ |⑨⑩⑪⑫⑬⑭|
⑬⑪⑫口 |⑮⑯⑰⑱⑲⑳|
31
口口⑧② |①②③④|
口口口⑦ |⑤⑥⑦⑧|
口④①⑥
口口⑤③

口⑨口口
⑩⑮⑭口
⑪⑯⑬口 |⑨⑩⑪⑫|
口⑫口口 |⑬⑭⑮⑯|
32
③口口① |①-②-③-|
口口口口 |④-⑤-⑥-|
④口⑤②
口口⑥口

口⑦口口
口⑧口⑨
⑪口口⑩ |⑦-⑧-⑨-|
⑫口口口 |⑩-⑪-⑫-|
33
⑩口口⑨ |①②③④⑤⑥|
⑧⑥③⑪ |⑦⑧⑨⑩⑪⑫|
⑫②⑤口
口④①⑦

口⑯⑮口
口口⑰口
口⑱口⑬ |⑬⑭⑮⑯⑰⑱|
⑭口⑲口 |⑲---|
34
口口②⑤ |①--②|
口①口④ |-③④⑤|
②口②③
口①口①

⑩口口口
⑨⑦⑥口
⑧口口口 |⑥--⑦|
⑥⑦⑥⑦ |-⑧⑨⑩|
35
口①①口 |①②③④|
口⑥⑤② |⑤⑥⑦⑧|
口口⑧③
口⑦④口

口⑫⑪口
⑬口口⑯
口⑭口口 |⑨⑩⑪⑫|
⑨口⑮⑩ |⑬⑭⑮⑯|
36
①口口① |①---|
口①①口 |----|
①口口① |----|
口口口② |②---|
37
口口口 |①---|
口口口 |----|
口口口 |----|
口口口 |----|
38
口口② |①---|
口⑦口口 |②-③-|
口③⑥口 |④-⑤-|
口⑤口④ |⑥-⑦-|
39
口 |①---|
口口口口
口口口口
口口口口

口口
口口⑥⑤ |--②-|
②④口口 |③-④-|
|⑤-⑥-|
40
①①口口 |①---|
②②口口 |②---|
③③口口 |③---|
④④口 |④---|
41
口口口 |①---|
口口口 |----|
口口口 |----|
口口口 |----|
42
②口口 |①---|
口口③口 |②-③-|
口④⑦口 |④-⑤-|
口⑥⑤口 |⑥-⑦-|
43
口 |①---|
口口口口
口口口口
口口口口

口④
口口口口 |--②-|
口口口② |③---|
口 |④---|
44
口口口口 |①---|
口口②口 |②---|
口口②口
口口①

④口口口
④③口口
④③口口 |③---|
④③口口 |④---|
45
口⑤①口 |①-②-|
⑤②⑥① |③-④-|
口⑦③口 |⑤-⑥-|
口④⑧口 |⑦-⑧-|
46
⑤口①⑤ |①-②-|
口②口① |③-④-|
口⑥③口 |⑤-⑥-|
⑦④⑧⑦ |⑦-⑧-|
47
④④口口 |①-②-|
口①①口 |③-④-|
口口③口
口②口口

口口⑤⑤
⑧⑨⑩口
口口口⑦ |⑤-⑥-|
⑥口口口 |⑦--⑧⑨⑩|
48
口口口口 |①-②-|
口口口① |③-④-|
口②④口
口③③口

口口口口
⑦⑥口⑧
⑨口口⑩ |⑤-⑥-|
⑤口口⑤ |⑦⑧⑨⑩|
49
口①②口 |①--②|
口口口口 |--③-|
口③③口
口②①口

⑦⑤口口
④⑥口口
口口口口 |-④⑤⑥|
口口口口 |⑦-|
50
口口⑦④ |①--②|
⑦口⑤⑥ |--③-|
①③③② |④⑤⑥⑦|
②口口① |---|
51
①⑤⑥口 |①-②-|
口⑦⑧④ |③-④-|
口⑨⑩② |⑤⑥⑦⑧|
③⑪⑫口 |⑨⑩⑪⑫|
52
口口口口 |----|
口口口口 |----|
口口口口 |----|
口口口口 |----|
53
③口口① |①②-③|
口口⑤口 |④-⑤⑥|
④口口②
口口⑥口

口⑩口口
⑪⑦口口
⑫口⑨口 |-⑦⑧⑨|
⑬⑧口口 |⑩---⑪⑫⑬-|
54
口口⑤口 |①②-③|
口③口① |④-⑤⑥|
口口⑥口
口④口②

⑦⑩口⑪
口口口⑫
⑧口口⑬ |-⑦⑧⑨|
口口口⑨ |⑩---⑪⑫⑬-|
55
口口③口 |①②-③|
⑤①口口 |④-⑤⑥|
口口④口
⑥②口口

⑪口口口
口⑫⑦⑩
口⑨⑬口 |-⑦⑧⑨|
口口⑧口 |⑩⑪⑫⑬|
56
口⑥②① |①②③④|
⑦口口口 |⑤⑥⑦⑧|
③口口⑤
口④口⑧

⑪口口口
口⑭⑬⑫
⑰⑯⑮口 |-⑨⑩⑪|
⑩口⑨口 |⑫⑬⑭⑮⑯⑰|
57
④口⑥① |①--②|
⑦⑧口口 |③-④-|
口口口口 |⑤--⑥|
③⑤②口 |⑦-⑧-|
58
口口⑤⑥ |①--②|
⑦⑨口口 |③-④-|
①④⑧⑥ |⑤--⑥|
⑦③口② |-⑦⑧⑨|
59
①⑤口⑧ |①--②|
口口④口 |③-④-|
口②口⑦ |⑤--⑥|
⑥口口③ |⑦-⑧-|
60
②口②口 |①--②|
④口口口 |-③-④|
口①口口
④③口③

口⑥口⑤
口口口⑦
⑥口口⑤ |-⑤-⑥|
口⑧⑦口 |-⑦-⑧|
61
⑤口④⑦ |①②③-④-⑤-|
③②①⑧ |-⑥⑦⑧|
口口口口
口口口⑥

⑮口口口
⑫⑬⑭口
口⑩⑨⑯ |⑨-⑩-⑪-⑫⑬|
⑪口⑰口 |⑭⑮⑯⑰|
62
口口③口 |①②③④|
口口口⑦ |-⑤⑥⑦|
②④⑥口
口①口⑤

口口口口
⑪口⑧口
口⑫口⑨ |⑧⑨-⑩|
⑩口⑬口 |-⑪⑫⑬|
63
口口④口 |①②③④|
口③⑦口 |-⑤⑥⑦|
⑥口②口
口①口⑤

口⑨口⑧
⑭⑮口⑩
口口⑯口 |⑧-⑨-⑩-⑪⑫|
⑪⑫⑬口 |⑬⑭⑮⑯|
64
口⑤①口 |①②③④|
口口④口 |--⑤-|
②④口③
口口⑤口

⑦口⑧⑥
口⑦口⑧
⑧口⑦口 |-⑥--|
⑥⑧口⑦ |⑦-⑧-|
65
口口口口 |①-|
口口①口
口①口口
口口口口

口 |②-|
|----|
|----|
口 |----|
66
口口口口 |----|
口口口口 |----|
口口口口 |----|
口口口口 |----|
67
口口口口 |----|
口口口口 |----|
口口口口 |----|
口口口口 |----|
68
口口口口 |----|
口口口口 |----|
口口口口 |----|
口口口口 |----|
69
口口 |①---|
口口口 |----|
口口口 |----|
口口口 |----|

不確定度: 0

最終更新:2016年04月18日 01:51