EBONY & IVORY
OSTER project

BASIC

Level: 4
BPM: 170
Notes: 306

1
口口口口 |----|
口口口口 |----|
口口口口 |----|
口口口口 |----|
2
口口①① |①---|
②②口口 |----|
口口口口 |②---|
口口口口 |----|
3
口口口口 |①---|
口口口口 |----|
口口①① |②---|
②②口口 |----|
4
口⑤④口 |①-②-|
③口⑥③ |--③-|
口②①口 |--④-|
口口口口 |⑤-⑥-|
5
口口口口 |①---|
口①口口 |----|
口口口口 |----|
口口口口 |----|
6
口口口口 |①---|
口口口口 |②---|
口口口口 |③---|
④③②① |④---|
7
口口口口 |①---|
口口口口 |②---|
①②③④ |③---|
口口口口 |④---|
8
口口口口 |①---|
④③②① |②---|
口口口口 |③---|
口口口口 |④---|
9
①②③④ |①---|
口口口口 |②---|
口口口口 |③---|
口口口口 |④---|
10
口口口口 |①---|
口①①口 |----|
口②②口 |②---|
口口口口 |----|
11
口口口口 |①---|
口①口口 |②---|
口口②口 |③---|
口③口口 |----|
12
口口口口 |①---|
口②②口 |----|
口①①口 |②---|
口口口口 |----|
13
口口①① |①---|
②②口口 |②---|
口口③③ |③---|
④④口口 |④---|
14
口口口口 |①---|
口①①口 |----|
口②②口 |②---|
口口口口 |----|
15
口口口口 |①---|
口①口口 |②---|
口口②口 |③---|
口③④口 |④---|
16
口口口口 |①---|
口口口口 |②---|
①②③④ |③---|
口口口口 |④---|
17
口口口口 |①---|
口①①口 |----|
口口口口 |----|
口口口口 |----|
18
①①口口 |①---|
口口②口 |②---|
口③口口 |③---|
口口④口 |④---|
19
④口口口 |①---|
③口口口 |②---|
②口口口 |③---|
①口口口 |④---|
20
口口口口 |①---|
口②①口 |②---|
口④③口 |③---|
口口口口 |④---|
21
口口①① |①---|
②②口口 |②---|
口口③③ |③---|
④④口口 |④---|
22
①①口口 |①---|
口口②口 |②---|
口③口口 |③---|
口口④口 |④---|
23
④口口口 |①---|
③口口口 |②---|
②口口口 |③---|
①口口口 |④---|
24
口口口口 |①---|
④③②① |②---|
口口口口 |③---|
口口口口 |④---|
25
口口口口 |①---|
口口口口 |----|
口①①口 |----|
口口口口 |----|
26
口②口① |①---|
④口③口 |②---|
口口口口 |③---|
口口口口 |④---|
27
口口口口 |①---|
口口口口 |②---|
口②口① |③---|
④口③口 |④---|
28
口口口口 |①---|
口口口口 |②---|
④口③口 |③---|
口②口① |④---|
29
④口③口 |①---|
口②口① |②---|
口口口口 |③---|
口口口口 |④---|
30
④口口① |①---|
口③②口 |②---|
口口口口 |③---|
口口口口 |④---|
31
口①②口 |①---|
口口口③ |②---|
口口口④ |③---|
口口口口 |④---|
32
①①①① |①---|
口口口口 |----|
②②②② |②---|
口口口口 |----|
33
口口①① |①---|
②②口口 |②---|
口口③③ |③---|
④④口口 |④---|
34
口口口 |①---|
口口口 |----|
口口口口
口口口口

口口口口
②③口
口口口口 |②---|
口口口口 |③---|
35
口口口口 |①---|
口口口口 |②---|
口口①②
口口口口

口口口口
口③③口
口④④口 |③---|
口口口口 |④---|
36
口口口 |①---|
口口口 |----|
口口口口
口口口口

口口口口
口③②
口口口口 |②---|
口口口口 |③---|
37
口口口口 |①---|
口②②口 |----|
口①①口 |②---|
口口口口 |----|
38
口②③口 |①---|
①口口④ |②---|
口口口口 |③---|
口口口口 |④---|
39
口口口口 |①---|
口②③口 |②---|
①口口④ |③---|
口口口口 |④---|
40
口口④口 |①---|
口③口口 |②---|
口口②口 |③---|
口①口口 |④---|
41
口①口口 |①---|
口口②口 |②---|
口③口口 |③---|
口口④口 |④---|
42
口口 |①---|
口口 |--②-|
①口口① |----|
口口口口 |----|
43
口口口 |--①-|
口 |----|
口口口口
口口口口

口口口口
口口
②口口口 |----|
口口口口 |--②-|
44
口口口口 |----|
口口口口 |①---|
口①②口 |--②-|
口口口口 |----|
45
口口口口 |①---|
口②②口 |--②-|
口口口① |----|
口口口口 |----|
46
口口 |----|
口口 |----|
口口口口 |----|
口口口口 |--①-|
47
口口口 |----|
口 |----|
口口口口 |--①-|
口口口口

口口口口
口口
口口口口
口口口口 |--②--|
48
口口口口 |----|
口口口口 |--①-|
①②口口 |----|
口口口口 |②---|
49
口口口口 |----|
口②②口 |----|
口口口① |①---|
口口口口 |--②-|
50
口口口口 |----|
口口口口 |----|
口口口口 |----|
口口口口 |----|
51
①口①口 |①---|
口②口② |----|
口口口口 |②---|
口口口口 |----|
52
口口口口 |①---|
口口口口 |②---|
口①②口 |③---|
口③④口 |④---|
53
口口口口 |①---|
①①口口 |----|
口口②② |②---|
口口口口 |----|
54
口口口口 |①---|
口口④口 |②---|
口②③③ |③---|
①①口口 |④---|
55
口口口口 |①---|
①①口口 |----|
口口②② |②---|
口口口口 |----|
56
口口口口 |①---|
②④口口 |②---|
①③口口 |③---|
口口口口 |④---|
57
口口口口 |①---|
口口②④ |②---|
口口①③ |③---|
口口口口 |④---|
58
①②③④ |①---|
口口口口 |②---|
口口口口 |③---|
口口口口 |④---|
59
口口口口 |①---|
④③②① |②---|
口口口口 |③---|
口口口口 |④---|
60
④④口口 |①---|
口口③③ |②---|
②②口口 |③---|
口口①① |④---|
61
口口①① |①---|
②②口口 |②---|
口口③③ |③---|
④④口口 |④---|
62
口①①口 |①---|
口②②口 |②---|
口③③口 |③---|
口④④口 |④---|
63
①口口① |①---|
②口口② |②---|
③口口③ |③---|
④口口④ |④---|
64
口口口口 |①---|
③口口② |----|
口①①口 |②---|
口口口口 |③---|
65
口口口口 |①---|
③口口② |----|
口①①口 |②---|
口口口口 |③---|
66
口口口口 |①---|
③口口② |----|
口①①口 |②---|
口口口口 |③---|
67
口口口口 |①---|
口口口口 |----|
口①①口 |②---|
口②②口 |----|
68
口口口口 |①---|
①②③④ |②---|
①②③④ |③---|
口口口口 |④---|
69
①①②② |①---|
口口口口 |----|
口口口口 |②---|
口口口口 |----|
70
口口口口 |①---|
口①①口 |----|
③口口③ |②---|
②口口② |③---|
71
口口口口 |①---|
①②②① |②---|
口②②口 |----|
口口口口 |----|

不確定度: 0

最終更新:2016年04月18日 01:34