竹取飛翔 ~ Lunatic Princess (Ryu☆Remix)
Ryu☆

BASIC

Level: 3
BPM: 171
Notes: 312

1
口口口口 |----|
口口口口 |----|
口口口口 |----|
口口口口 |----|
2
口口口口 |----|
口口口口 |----|
口①①口 |①---|
口口口口 |----|
3
①口口① |①---|
口口口口 |----|
口口口口 |②---|
②口口② |----|
4
口口口口 |①---|
口②②口 |----|
口①①口 |②---|
口口口口 |----|
5
①口口① |①---|
②口口② |----|
口口口口 |②---|
口口口口 |----|
6
口④④口 |①---|
口③③口 |②---|
口②②口 |③---|
口①①口 |④---|
7
口口口口 |①---|
①口口① |----|
口口口口 |②---|
②口口② |----|
8
②口口② |①---|
口口口口 |----|
口①①口 |②---|
口口口口 |----|
9
口口口口 |①---|
口①①口 |----|
口②②口 |②---|
口口口口 |----|
10
口口口口 |①---|
|----|
口口口口 |②---|
①口口①

口口口口
口口口
口口口口
口口口口 |③---|
11
口①②口 |①---|
口口口口 |----|
口口口口 |②---|
口口口口 |----|
12
口口口口 |①---|
口①②口 |----|
口口口口 |②---|
口口口口 |----|
13
口口口口 |①---|
口口口口 |----|
口①②口 |②---|
口口口口 |----|
14
口口口口 |①---|
口口口口 |----|
口口口口 |②---|
口①②口 |----|
15
①口口① |①---|
②口口② |----|
口口口口 |②---|
口口口口 |----|
16
口口口口 |①---|
口口口口 |----|
①口口① |②---|
②口口② |----|
17
口①①口 |①---|
口②②口 |----|
口口口口 |②---|
口口口口 |----|
18
口口口口 |①---|
口②②口 |----|
口口口口 |②---|
①口口① |----|
19
①口口① |①---|
口口口口 |----|
口口口口 |②---|
②口口② |----|
20
口口口口 |①---|
口②②口 |----|
口①①口 |②---|
口口口口 |----|
21
①口口① |①---|
②口口② |----|
口口口口 |②---|
口口口口 |----|
22
口④④口 |①---|
口③③口 |②---|
口②②口 |③---|
口①①口 |④---|
23
口口口口 |①---|
①口口① |----|
口口口口 |②---|
②口口② |----|
24
②口口② |①---|
口口口口 |----|
口①①口 |②---|
口口口口 |----|
25
口口口口 |①---|
口①①口 |----|
口②②口 |②---|
口口口口 |----|
26
口口口口 |①---|
口口口口 |----|
口口口口 |----|
①口口① |----|
27
①①①① |①---|
口口口口 |----|
口口口口 |----|
口口口口 |----|
28
口口口口 |----|
|----|
口口口口 |①---|
口口口口

口口口口
口口口
口口口口
口口口口 |②---|
29
①②③④ |①---|
口口口口 |②---|
口口口口 |③---|
口口口口 |④---|
30
口口口口 |①---|
①②③④ |②---|
口口口口 |③---|
口口口口 |④---|
31
口口口口 |①---|
口口口口 |②---|
④③②① |③---|
口口口口 |④---|
32
口口口口 |①---|
口口口口 |②---|
口口口口 |③---|
④③②① |④---|
33
口口口口 |①---|
①②③④ |②---|
口口口口 |③---|
口口口口 |④---|
34
口口口口 |①---|
口口口口 |②---|
④③②① |③---|
口口口口 |④---|
35
口①①口 |①---|
口②②口 |----|
口口口口 |②---|
口口口口 |----|
36
口口口口 |①---|
|----|
口口口口 |②---|
①①①①

口口口口
口口口
口口口口
口口口口 |③---|
37
口①②口 |①---|
口③④口 |②---|
口口口口 |③---|
口口口口 |④---|
38
口口口口 |①---|
口口口口 |----|
②口口② |②---|
①口口① |----|
39
口①②口 |①---|
口③④口 |②---|
口口口口 |③---|
口口口口 |④---|
40
①口口① |①---|
②口口② |②---|
③口口③ |③---|
④口口④ |④---|
41
②①①② |①---|
④③③④ |②---|
口口口口 |③---|
口口口口 |④---|
42
②口口② |①---|
口口口口 |----|
口口口口 |②---|
①口口① |----|
43
③④④③ |①---|
①②②① |②---|
口口口口 |③---|
口口口口 |④---|
44
口口口口 |①---|
|----|
①口口①
口口口口

口口口口
口口口
口口口口 |----|
口口口口 |②---|
45
①口口② |①---|
口口口口 |----|
口口口口 |②---|
口口口口 |----|
46
口④④口 |①---|
口③③口 |②---|
口②②口 |③---|
口①①口 |④---|
47
口口口口 |----|
口口口口 |----|
口口口口 |----|
口口口口 |----|
48
口口口口 |①---|
①口口② |----|
①口口② |②---|
口口口口 |----|
49
①口口② |①---|
口口口口 |②---|
口口口口 |③---|
③口口④ |④---|
50
②口口② |①---|
口口口口 |----|
口①①口 |②---|
口口口口 |----|
51
口口口口 |①---|
口④④口 |②---|
①③③① |③---|
口②②口 |④---|
52
①口口① |①---|
|----|
口口口口 |②---|
口口口口

口口口口
口口口
口口口口
口口口口 |③---|
53
口口口口 |----|
口口口口 |----|
口口口口 |----|
口口口口 |----|
54
口口口口 |----|
口口口口 |----|
口口口口 |----|
口口口口 |----|
55
口口口口 |①---|
口①①口 |----|
口口口口 |----|
口口口口 |----|
56
口口口口 |①---|
口口口口 |----|
口①①口 |----|
口口口口 |----|
57
口口口口 |①---|
①②③④ |②---|
口口口口 |③---|
口口口口 |④---|
58
口口口口 |①---|
口口口口 |②---|
④③②① |③---|
口口口口 |④---|
59
口口口口 |①---|
①②③④ |②---|
口口口口 |③---|
口口口口 |④---|
60
口③③口 |①---|
口②②口 |②---|
口①①口 |③---|
口口口口 |----|
61
口口口口 |----|
|----|
口口口口 |①---|
口口口口

口口口口
口口口
口口口口
口口口口 |②---|
62
①口口① |①---|
口口口口 |----|
口口口口 |②---|
②口口② |----|
63
口口口口 |①---|
口②②口 |----|
口①①口 |②---|
口口口口 |----|
64
①口口① |①---|
②口口② |----|
口口口口 |②---|
口口口口 |----|
65
口④④口 |①---|
口③③口 |②---|
口②②口 |③---|
口①①口 |④---|
66
口口口口 |①---|
①口口① |----|
口口口口 |②---|
②口口② |----|
67
②口口② |①---|
口口口口 |----|
口①①口 |②---|
口口口口 |----|
68
口口口口 |①---|
口①①口 |----|
口②②口 |②---|
口口口口 |----|
69
口口口口 |①---|
口口口口 |----|
口口口口 |----|
①口口① |----|
70
①口口① |①---|
口口口口 |----|
口口口口 |②---|
②口口② |----|
71
口口口口 |①---|
口②②口 |----|
口①①口 |②---|
口口口口 |----|
72
①口口① |①---|
②口口② |----|
口口口口 |②---|
口口口口 |----|
73
口口口口 |①---|
口③③口 |②---|
口②②口 |③---|
口①①口 |----|
74
口口口口 |①---|
①口口① |----|
口口口口 |②---|
②口口② |----|
75
②口口② |①---|
口口口口 |----|
口①①口 |②---|
口口口口 |----|
76
口口口口 |①---|
口①①口 |----|
口②②口 |②---|
口口口口 |----|
77
口口口口 |①---|
口②②口 |----|
口③③口 |②---|
①口口① |③---|
78
①口口① |①---|
口口口口 |----|
口口口口 |----|
口口口口 |----|
79
口口口口 |----|
|----|
口口口口 |①---|
口口口口

口口口口
口口口
口口口口
口口口口 |②---|

不確定度: 0

最終更新:2016年04月18日 01:18