Love♥km
dj TAKA feat. REN

ADVANCED

Level: 7
BPM: 184
Notes: 474

1
口口口口 |----|
口口口口 |----|
口口口口 |----|
口口口口 |----|
2
口口口口 |①---|
口③口③ |②---|
④①③① |③---|
②口①口 |④---|
3
④①口① |①---|
②口①⑤ |②---|
口③口口 |③-④-|
口口口口 |--⑤-|
4
口口口口 |①---|
④口③口 |②---|
②③①③ |③---|
口①口① |④---|
5
②④①④ |①---|
口①③① |②---|
口⑤口⑤ |③-④-|
口口口口 |--⑤-|
6
口口口口 |①---|
口③口③ |②---|
④口③口 |③---|
②口①口 |④---|
7
④①口① |①---|
②口①⑤ |②---|
口③口口 |③-④-|
口口口口 |--⑤-|
8
口口口口 |①---|
④口③口 |②---|
②③口③ |③---|
口①口① |④---|
9
②③①口 |①-②-|
口①口① |③-④-|
口口④⑤ |⑤-⑥-|
⑥⑦口⑧ |⑦-⑧-|
10
口口口口 |①---|
①口口口 |----|
①①口口 |----|
口口口口 |----|
11
口口口口 |①---|
口口①口 |----|
口①口① |----|
口口①口 |----|
12
①口①口 |①---|
①口①口 |----|
口①口口 |----|
口口口口 |----|
13
口口口口 |①---|
口口①① |②---|
口口②③ |③---|
口口②④ |④---|
14
①口①口 |①---|
①①①口 |----|
口①口口 |----|
口口口口 |----|
15
口①口① |①---|
口①①口 |----|
口①口① |----|
口口口口 |----|
16
口口口口 |①---|
①②口口 |②---|
口③口口 |③---|
口④口口 |④---|
17
口口口口 |①---|
口口①④ |②-③-|
口口②⑤ |④-⑤-|
口口③⑥ |⑥---|
18
②①①② |①--②|
口②②口 |----|
口口口口 |----|
口口口口 |----|
19
口口口口 |①---|
口口口口 |----|
①①①① |----|
①①①① |----|
20
①②③④ |①-②-|
口口口⑤ |③-④-|
口口口⑥ |⑤-⑥-|
口口⑧⑦ |⑦-⑧-|
21
口口口口 |①-②-|
④⑤⑥口 |③-④-|
③⑧⑦口 |⑤-⑥-|
②①口口 |⑦-⑧-|
22
①②③④ |①-②-|
口口口⑤ |③-④-|
口口口⑥ |⑤-⑥-|
口口⑧⑦ |⑦-⑧-|
23
口口口口 |①-②-|
④⑤⑥口 |③-④-|
③⑧⑦口 |⑤-⑥-|
②①口口 |⑦-⑧-|
24
①②③④ |①-②-|
口口口⑤ |③-④-|
口口口⑥ |⑤-⑥-|
口口⑧⑦ |⑦-⑧-|
25
口口口口 |①-②-|
④⑤⑥口 |③-④-|
③⑧⑦口 |⑤-⑥-|
②①口口 |⑦-⑧-|
26
口口口口 |①-②-|
⑧口⑦⑥ |③-④-|
口口口⑤ |⑤-⑥-|
①②③④ |⑦-⑧-|
27
口①口① |①---|
口⑤口⑤ |②---|
口口②口 |③---|
口③④③ |④-⑤-|
28
口④口④ |--①-|
口口③口 |--②-|
①②①② |③---|
口⑤口口 |④-⑤-|
29
③④③口 |①---|
⑤②⑤口 |②---|
口口口口 |③---|
①口①口 |④-⑤-|
30
口口口口 |--①-|
口口口口 |--②-|
②①②① |③---|
④③④口 |④---|
31
口①口① |①---|
口⑤口⑤ |②---|
口口②口 |③---|
口③④③ |④-⑤-|
32
口⑤口⑤ |--①-|
口口④口 |②-③-|
①③②③ |④---|
口⑥口口 |⑤-⑥-|
33
口口口口 |①---|
③②③口 |②---|
口口④口 |③---|
①口①口 |④---|
34
口口口口 |①---|
口④口④ |②---|
口①口① |③---|
③②③口 |④---|
35
口②③口 |----|
①口口口 |----|
口口口口 |--①-|
口口口口 |②-③-|
36
⑤口口⑥ |①-②-|
口④④① |③---|
⑤③②⑥ |④---|
口口口口 |⑤-⑥-|
37
②③④口 |----|
①口口① |--①-|
口口口口 |--②-|
口口口口 |③-④-|
38
口口口口 |①-②-|
口①口口 |③-④-|
②③④口
口口口口

口口口口
⑥⑦口口
口口口⑤ |⑤---|
口口口口 |⑥-⑦-|
39
④口口口 |①---|
口⑤①口 |②-③-|
口②口口 |----|
③③③口 |④-⑤-|
40
口口口③ |①---|
口口口③ |②-③-|
①口②②
口口口口

口口口口
口④口口
⑤口口口 |----|
口口口口 |④-⑤-|
41
口口口③ |①---|
④⑤口③ |②-③-|
口口②② |----|
口①口口 |④-⑤-|
42
口②⑤⑥ |①---|
口口①口 |②-③-|
口③口口 |④-⑤-|
④口口⑦ |⑥-⑦-|
43
③③口④ |①---|
口口⑤口 |②---|
②②口⑥ |③-④-|
口口①口 |⑤-⑥-|
44
④口③口 |①-②-|
口⑤口口 |③---|
②口⑥口 |④---|
口①口口 |⑤-⑥-|
45
③口①② |----|
口口口口 |--①-|
①口口口 |--②-|
口口口④ |③-④-|
46
⑦⑥⑥⑦ |①-②-|
③口口② |③-④-|
⑤口口④ |⑤---|
①口口口 |⑥-⑦-|
47
③口口口 |----|
口④口口 |①-②-|
口口口口 |----|
②①①② |③-④-|
48
④口口口 |①---|
口口②口 |②-③-|
口③①口 |----|
⑤口口口 |④-⑤-|
49
口口口① |①---|
④③③④ |②-③-|
口③③口 |----|
口口口② |④---|
50
⑦口口⑥ |①---|
口⑤口口 |②-③-|
②口④① |④-⑤-|
①③口② |⑥-⑦-|
51
口③①口 |①---|
③③①① |②---|
②②④④ |③---|
口②④口 |④---|
52
①口口① |①---|
口口口口 |----|
口口口口 |----|
口口口口 |----|
53
口口口口 |----|
①②②① |----|
②①①② |----|
口口口口 |①-②-|
54
口口口口 |----|
口口口口 |----|
口口口口 |----|
口口口口 |----|
55
口②口口 |----|
①③①口 |①---|
口②口口 |②---|
口口口口 |③---|
56
口口口口 |①---|
口口口口 |----|
口口口口 |----|
口①口口 |----|
57
①②口口 |----|
①口口口 |----|
口口口口 |----|
口口口口 |①-②-|
58
口口⑤口 |①---|
口①⑥口 |②-③-|
口②③④ |④---|
口口口口 |⑤-⑥-|
59
口口口口 |①---|
口口口口 |----|
口口口口 |----|
口口①口 |----|
60
①口口口 |①---|
①口口口 |----|
①口口口 |----|
①口口口 |----|
61
口口口口 |----|
口①口① |----|
口①①① |----|
口口①口 |①---|
62
口口口口 |----|
口口口口 |----|
口口口口 |----|
口口口口 |----|
63
口②口② |----|
口口②口 |①---|
①③①③ |②---|
口①③口 |③---|
64
①口①口 |①---|
口①口口 |----|
口口口口 |----|
口口口口 |----|
65
①②口口 |----|
口口口口 |----|
口口口口 |----|
口口口口 |①-②-|
66
⑧口①口 |①-②-|
口②口④ |③-④-|
③口⑤口 |⑤-⑥-|
口⑥⑦口 |⑦-⑧-|
67
口口④④ |①-②-|
①③⑤⑤ |③-④-|
②②口⑥ |⑤-⑥-|
口⑧⑦口 |⑦-⑧-|
68
口①口口 |①-②-|
口②④⑧ |③-④-|
口③⑤⑦ |⑤-⑥-|
口口⑥口 |⑦-⑧-|
69
①②②① |----|
②①①② |----|
口口口口 |--①-|
口口口口 |--②-|
70
口口口口 |----|
口口口口 |----|
口口口口 |----|
口口口口 |----|
71
口口口口 |----|
口口口口 |----|
②①①② |--①-|
①②②① |--②-|
72
①口口① |①---|
口口口口 |----|
口口口口 |----|
口口口口 |----|
73
口口口口 |①---|
口口口口 |----|
①口口口
①①口口

口口口口
②③③②
③②②③ |--②-|
口口口口 |--③-|
74
①口口① |①---|
口口口口 |----|
口口②口 |②---|
口②口② |----|
75
①口①口 |①---|
口①口口 |----|
口口口口
口口口口

口口口口
②③③②
③②②③ |--②-|
口口口口 |--③-|


不确定度: 0

タグ:

+ タグ編集
  • タグ:

このサイトはreCAPTCHAによって保護されており、Googleの プライバシーポリシー利用規約 が適用されます。

最終更新:2012年11月10日 14:23