Kiss Kiss
Chris Brown featuring T-Pain

BASIC

Level: 2
BPM: 140
Notes: 202

1
口口口口 |----|
口口口口 |----|
口口口口 |----|
口口口口 |----|
2
口口口口 |①---|
①口口② |----|
口口口口 |②---|
口口口口 |----|
3
口口口口 |①---|
口①②口 |----|
口口口口 |②---|
口口口口 |----|
4
口口口口 |①---|
口口口口 |----|
①口口② |②---|
口口口口 |----|
5
口③③口 |①---|
口②②口 |②---|
口①①口 |③---|
口口口口 |----|
6
口口口口 |①---|
①口口② |----|
口口口口 |②---|
口口口口 |----|
7
口口口口 |①---|
口①②口 |----|
口口口口 |②---|
口口口口 |----|
8
口口口口 |①---|
口口口口 |----|
①口口② |②---|
口口口口 |----|
9
口③③口 |①---|
口②②口 |②---|
口①①口 |③---|
口口口口 |----|
10
①口口② |①---|
口口口口 |----|
口口口口 |②---|
口口口口 |----|
11
口①②口 |①---|
口口口口 |----|
口口口口 |②---|
口口口口 |----|
12
口口口口 |①---|
①口口② |----|
口口口口 |②---|
口口口口 |----|
13
口③③口 |①---|
口②②口 |②---|
口①①口 |③---|
口口口口 |----|
14
①口口② |①---|
口口口口 |----|
口口口口 |②---|
口口口口 |----|
15
口①②口 |①---|
口口口口 |----|
口口口口 |②---|
口口口口 |----|
16
口口口口 |①---|
①口口② |----|
口口口口 |②---|
口口口口 |----|
17
口③③口 |①---|
口②②口 |②---|
口①①口 |③---|
口口口口 |----|
18
①②口口 |①---|
口口口口 |----|
口口口口 |②---|
口口口口 |----|
19
口口②① |①---|
口口口口 |----|
口口口口 |②---|
口口口口 |----|
20
口口口口 |①---|
①②口口 |----|
口口口口 |②---|
口口口口 |----|
21
口口口口 |①---|
口口②① |----|
口口口口 |②---|
口口口口 |----|
22
①口口口 |①---|
口②口口 |----|
口口口口 |②---|
口口口口 |----|
23
口口口① |①---|
口口②口 |----|
口口口口 |②---|
口口口口 |----|
24
口口口口 |①---|
①口口口 |----|
口②口口 |②---|
口口口口 |----|
25
口口口口 |①---|
口口口① |----|
口口②口 |②---|
口口口口 |----|
26
②口口口 |①---|
口①①口 |----|
口口口口 |②---|
口口口口 |----|
27
口口口口 |①---|
口①①口 |----|
口口口② |②---|
口口口口 |----|
28
口②口口 |①---|
口①①口 |----|
口口口口 |②---|
口口口口 |----|
29
口口口口 |①---|
口①①口 |----|
口口②口 |②---|
口口口口 |----|
30
口口口口 |①---|
口口口口 |----|
口②②口 |②---|
口①①口 |----|
31
口②②口 |①---|
口①①口 |----|
口口口口 |②---|
口口口口 |----|
32
①口口① |①---|
②口口② |----|
口口口口 |②---|
口口口口 |----|
33
口口口口 |①---|
口口口口 |----|
①口口① |②---|
②口口② |----|
34
口口口口 |①---|
口口口口 |----|
①口口② |②---|
口口口口 |----|
35
口口口口 |①---|
口口口口 |----|
口①②口 |②---|
口口口口 |----|
36
口口口口 |①---|
口口口口 |----|
口口口口 |②---|
①口口② |----|
37
口③③口 |①---|
口②②口 |②---|
口①①口 |③---|
口口口口 |----|
38
口口口口 |①---|
口口口口 |----|
①口口② |②---|
口口口口 |----|
39
口口口口 |①---|
口口口口 |----|
口①②口 |②---|
口口口口 |----|
40
口口口口 |①---|
口口口口 |----|
口口口口 |②---|
①口口② |----|
41
口③③口 |①---|
口②②口 |②---|
口①①口 |③---|
口口口口 |----|
42
口口口口 |①---|
①口口② |----|
口口口口 |②---|
口口口口 |----|
43
口口口口 |①---|
口①②口 |----|
口口口口 |②---|
口口口口 |----|
44
口口口口 |①---|
口口口口 |----|
①口口② |②---|
口口口口 |----|
45
口③③口 |①---|
口②②口 |②---|
口①①口 |③---|
口口口口 |----|
46
口口口口 |①---|
①口口② |----|
口口口口 |②---|
口口口口 |----|
47
口口口口 |①---|
口①②口 |----|
口口口口 |②---|
口口口口 |----|
48
口口口口 |①---|
口口口口 |----|
①口口② |②---|
口口口口 |----|
49
口③③口 |①---|
口②②口 |②---|
口①①口 |③---|
口口口口 |----|
50
口口口口 |①---|
口口口口 |----|
口口口口 |②---|
①②口口 |----|
51
口口口口 |①---|
口口口口 |----|
口口口口 |②---|
口口②① |----|
52
口口口口 |①---|
口口口口 |----|
①②口口 |②---|
口口口口 |----|
53
口口口口 |①---|
口口口口 |----|
口口②① |②---|
口口口口 |----|
54
口口口口 |①---|
口口口口 |----|
口②口口 |②---|
①口口口 |----|
55
口口口口 |①---|
口口口口 |----|
口口②口 |②---|
口口口① |----|
56
口口口口 |①---|
①口口② |----|
口口口口 |②---|
口口口口 |----|
57
口口口口 |①---|
口口口口 |----|
口②②口 |②---|
口①①口 |----|
58
②口口口 |①---|
口①①口 |----|
口口口口 |②---|
口口口口 |----|
59
口口口口 |①---|
口①①口 |----|
口口口② |②---|
口口口口 |----|
60
口②口口 |①---|
口①①口 |----|
口口口口 |②---|
口口口口 |----|
61
口口口口 |①---|
口①①口 |----|
口口②口 |②---|
口口口口 |----|
62
口口口口 |①---|
口口口口 |----|
口②②口 |②---|
口①①口 |----|
63
口②②口 |①---|
口①①口 |----|
口口口口 |②---|
口口口口 |----|
64
①口口① |①---|
②口口② |②---|
口口口口 |--③-|
③口口③ |----|
65
口口口口 |----|
口③③口 |①---|
口②②口 |②---|
口①①口 |③---|
66
口口口口 |①---|
①口口② |----|
口口口口 |②---|
口口口口 |----|
67
口口口口 |①---|
口①②口 |----|
口口口口 |②---|
口口口口 |----|
68
口口口口 |①---|
口口口口 |----|
①口口② |②---|
口口口口 |----|
69
口③③口 |①---|
口②②口 |②---|
口①①口 |③---|
口口口口 |----|

不確定度: 0

最終更新:2016年04月18日 00:33