Kiss Kiss
Chris Brown featuring T-Pain

ADVANCED

Level: 3
BPM: 140
Notes: 301

1
口口口口 |----|
口口口口 |----|
口口口口 |----|
口口口口 |----|
2
口口口口 |①---|
口口口口 |②---|
口②④口 |③---|
口①③口 |④---|
3
口口口口 |①---|
口口口口 |②---|
①②④③ |③---|
口口口口 |④---|
4
口口口口 |①---|
口口口口 |②---|
口口口口 |③---|
①②④③ |④---|
5
口口口口 |①-②-|
口口口口 |③---|
①②③④ |④---|
口口口口 |----|
6
口口口口 |①---|
口②④口 |②---|
口①③口 |③---|
口口口口 |④---|
7
口口口口 |①---|
①②④③ |②---|
口口口口 |③---|
口口口口 |④---|
8
口口口口 |①---|
口口口口 |②---|
①②④③ |③---|
口口口口 |④---|
9
口口口口 |①-②-|
①②③④ |③---|
口口口口 |④---|
口口口口 |----|
10
口②④口 |①---|
口①③口 |②---|
口口口口 |③---|
口口口口 |④---|
11
①②④③ |①---|
口口口口 |②---|
口口口口 |③---|
口口口口 |④---|
12
口口口口 |①---|
①②④③ |②---|
口口口口 |③---|
口口口口 |④---|
13
①②③④ |①-②-|
口口口口 |③---|
口口口口 |④---|
口口口口 |----|
14
口口口口 |①---|
口②④口 |②---|
口①③口 |③---|
口口口口 |④---|
15
口口口口 |①---|
①②④③ |②---|
口口口口 |③---|
口口口口 |④---|
16
口口口口 |①---|
口口口口 |②---|
①②④③ |③---|
口口口口 |④---|
17
口口口口 |①-②-|
①②③④ |③---|
口口口口 |④---|
口口口口 |----|
18
①口口口 |①---|
③口口② |②---|
口口口④ |③---|
口口口口 |④---|
19
口口口口 |①---|
口④④口 |②---|
①③③口 |③---|
口口口② |④---|
20
口口口① |①---|
②口口③ |②---|
④口口口 |③---|
口口口口 |④---|
21
口口口口 |①---|
口④④口 |②---|
口③③① |③---|
②口口口 |④---|
22
①口口口 |①---|
②口口口 |②---|
③口口口 |③---|
④口口口 |④---|
23
口口口① |①---|
口口口② |②---|
口口口③ |③---|
口口口④ |④---|
24
口口口口 |①---|
①口口① |----|
②口口② |②---|
口口口口 |----|
25
口口口口 |①-②-|
口①②口 |----|
口③④口 |③---|
口口口口 |④---|
26
②③④口 |①---|
①①①① |②---|
口口口口 |③---|
口口口口 |④---|
27
口口口口 |①---|
口口口口 |----|
①①①① |②---|
口口③② |③---|
28
②③④口 |①---|
①①①① |②---|
口口口口 |③---|
口口口口 |④---|
29
口口口口 |①---|
口口口口 |----|
①①①① |②---|
口口③② |③---|
30
口④口口 |①---|
口③口口 |②---|
口②口口 |③---|
口①口口 |④---|
31
口口④口 |①---|
口口③口 |②---|
口口②口 |③---|
口口①口 |④---|
32
①口口① |①---|
口②②口 |----|
口口口口 |②---|
口口口口 |----|
33
口口口口 |①---|
口口口口 |----|
口①①口 |②---|
②口口② |----|
34
口口口口 |①---|
口口口口 |②---|
口②④口 |③---|
口①③口 |④---|
35
口口口口 |①---|
口口口口 |②---|
①②④③ |③---|
口口口口 |④---|
36
口口口口 |①---|
口口口口 |②---|
口口口口 |③---|
①②④③ |④---|
37
口口口口 |①-②-|
口口口口 |③---|
①②③④ |④---|
口口口口 |----|
38
口口口口 |①---|
口②④口 |②---|
口①③口 |③---|
口口口口 |④---|
39
口口口口 |①---|
①②④③ |②---|
口口口口 |③---|
口口口口 |④---|
40
口口口口 |①---|
口口口口 |②---|
①②④③ |③---|
口口口口 |④---|
41
口口口口 |①-②-|
①②③④ |③---|
口口口口 |④---|
口口口口 |----|
42
口②④口 |①---|
口①③口 |②---|
口口口口 |③---|
口口口口 |④---|
43
①②④③ |①---|
口口口口 |②---|
口口口口 |③---|
口口口口 |④---|
44
口口口口 |①---|
①②④③ |②---|
口口口口 |③---|
口口口口 |④---|
45
①②③④ |①-②-|
口口口口 |③---|
口口口口 |④---|
口口口口 |----|
46
口口口口 |①---|
口②④口 |②---|
口①③口 |③---|
口口口口 |④---|
47
口口口口 |①---|
①②④③ |②---|
口口口口 |③---|
口口口口 |④---|
48
口口口口 |①---|
口口口口 |②---|
①②④③ |③---|
口口口口 |④---|
49
口口口口 |①-②-|
①②③④ |③---|
口口口口 |④---|
口口口口 |----|
50
①口口口 |①---|
③口口② |②---|
口口口④ |③---|
口口口口 |④---|
51
口口口口 |①---|
口④④口 |②---|
①③③口 |③---|
口口口② |④---|
52
口口口① |①---|
②口口③ |②---|
④口口口 |③---|
口口口口 |④---|
53
口口口口 |①---|
口④④口 |②---|
口③③① |③---|
②口口口 |④---|
54
口口口口 |①---|
②口口口 |②---|
①口口口 |----|
口口口口 |----|
55
口口口口 |①---|
口口口② |②---|
口口口① |----|
口口口口 |----|
56
①口口① |①---|
②口口② |----|
口口口口 |②---|
口口口口 |----|
57
口口口口 |①---|
口口口口 |----|
①口口① |②---|
②口口② |----|
58
②③④口 |①---|
①①①① |②---|
口口口口 |③---|
口口口口 |④---|
59
口口口口 |①---|
口口口口 |----|
①①①① |②---|
口口③② |③---|
60
②③口口 |①---|
①①①① |----|
口口口口 |②---|
口口口口 |③---|
61
口口口口 |①---|
口口口口 |----|
①①①① |②---|
口口③② |③---|
62
口④口口 |①---|
口③口口 |②---|
口②口口 |③---|
口①口口 |④---|
63
口口④口 |①---|
口口③口 |②---|
口口②口 |③---|
口口①口 |④---|
64
①口口① |①---|
②③③② |②---|
口口口口 |--③-|
口口口口 |----|
65
①口口① |①---|
②口口② |②---|
③口口③ |③---|
④口口④ |④---|
66
口口口口 |①---|
口口口口 |②---|
口②④口 |③---|
口①③口 |④---|
67
口口口口 |①---|
口口口口 |②---|
①②④③ |③---|
口口口口 |④---|
68
口口口口 |①---|
口口口口 |②---|
口口口口 |③---|
①②④③ |④---|
69
口口口口 |①-②-|
口口口口 |③---|
①②③④ |④---|
口口口口 |----|

不確定度: 0

最終更新:2016年04月18日 00:33