きゅん×きゅんばっきゅん☆LOVE
松下feat.Sota & wac

BASIC

Level: 3
BPM: 165
Notes: 212

1
口口口口 |----|
口口口口 |----|
口口口口 |----|
口口口口 |----|
2
口口口口 |①---|
口口口口 |----|
口①①口 |----|
口口口口 |----|
3
口口口口 |①---|
③口口③ |②---|
口①②口 |③---|
口口口口 |----|
4
口③③口 |--①-|
②口口② |----|
口①①口 |②---|
口口口口 |--③-|
5
口口口口 |----|
口口口口 |----|
口口口口 |----|
口口口口 |----|
6
口口口口 |----|
口口口口 |----|
口口口口 |----|
口口口口 |----|
7
口口口口 |①---|
③口口③ |②---|
口①②口 |③---|
口口口口 |----|
8
口③③口 |--①-|
②口口② |----|
口①①口 |②---|
口口口口 |--③-|
9
口口口口 |----|
口口口口 |----|
口①①口 |----|
口口口口 |--①-|
10
口口口口 |----|
口口口口 |----|
口口口口 |----|
口口口口 |----|
11
口口口口 |①---|
口口口口 |----|
口口口口 |②---|
口①②口 |----|
12
口口口口 |①---|
口口口口 |----|
口①②口 |②---|
口口口口 |----|
13
口口口口 |①---|
口①②口 |----|
口口口口 |②---|
口口口口 |----|
14
口①②口 |①---|
口口口口 |----|
口口口口 |②---|
口口口口 |----|
15
口口口口 |①---|
①②口口 |----|
口口口口 |②---|
口口口口 |----|
16
口口口口 |①---|
口口①② |----|
口口口口 |②---|
口口口口 |----|
17
口口口口 |①---|
口口口口 |----|
口口②① |②---|
口口口口 |----|
18
口口口口 |①---|
口口口口 |----|
②①口口 |②---|
口口口口 |----|
19
口口口口 |①---|
口口口口 |----|
口口②口 |②---|
口口口① |----|
20
②口口口 |①---|
口①口口 |----|
口口口口 |②---|
口口口口 |----|
21
口口口① |①---|
口口②口 |----|
口口口口 |②---|
口口口口 |----|
22
口口口口 |①---|
口口口口 |----|
口①口口 |②---|
②口口口 |----|
23
口口口口 |①---|
口口口口 |----|
口②口口 |②---|
口口①口 |----|
24
口②口口 |①---|
口口①口 |----|
口口口口 |②---|
口口口口 |----|
25
口口①口 |①---|
口②口口 |----|
口口口口 |②---|
口口口口 |----|
26
口口口口 |①---|
②口口② |--②-|
口①①口 |----|
口口口口 |----|
27
口口口口 |①---|
口口口② |----|
口口口① |②---|
口口口口 |----|
28
口口口口 |①---|
口口②口 |----|
口口①口 |②---|
口口口口 |----|
29
口口口口 |①---|
口②口口 |----|
口①口口 |②---|
口口口口 |----|
30
口口口口 |①---|
②口口口 |----|
①口口口 |②---|
口口口口 |----|
31
口口①口 |①---|
口②口口 |----|
口口口口 |②---|
口口口口 |----|
32
口口口口 |①---|
口口口口 |----|
口口①口 |②---|
口②口口 |----|
33
口口口口 |①---|
口口口口 |----|
口②口口 |②---|
口口①口 |----|
34
口②口口 |①---|
口口①口 |----|
口口口口 |②---|
口口口口 |----|
35
口④④口 |①---|
③口口③ |②---|
口②①口 |③---|
口口口口 |--④-|
36
口口口口 |----|
口①①口 |--①-|
口口口口 |----|
口口口口 |----|
37
口口口口 |①---|
④口口④ |②---|
①②③口 |③---|
口口口口 |--④-|
38
口口口口 |----|
口口口口 |--①-|
①口口① |----|
口口口口 |----|
39
口口口口 |①---|
口口口口 |----|
③口口③ |②---|
口①②口 |--③-|
40
口口口口 |----|
①口口① |--①-|
口口口口 |----|
口口口口 |----|
41
口口口口 |①---|
③口口③ |----|
口②①口 |②---|
口口口口 |--③-|
42
口口口口 |----|
口口口口 |--①-|
①口口① |----|
口口口口 |----|
43
口④④口 |①---|
③口口③ |②---|
口①②口 |③---|
口口口口 |--④-|
44
口口口口 |----|
口①①口 |--①-|
口口口口 |----|
口口口口 |----|
45
口口口口 |①---|
④口口④ |②---|
①②③口 |③---|
口口口口 |--④-|
46
口口口口 |----|
口口口口 |--①-|
①口口① |----|
口口口口 |----|
47
口口口口 |①---|
口口口口 |----|
③口口③ |②---|
口①②口 |--③-|
48
口口口口 |----|
①口口① |--①-|
口口口口 |----|
口口口口 |----|
49
口口口口 |①---|
口口口口 |----|
口②①口 |②---|
口口口口 |----|
50
口①①口 |①---|
口②②口 |--②-|
口口口口 |----|
口口口口 |----|
51
①口口① |①---|
②口口② |----|
口口口口 |----|
口口口口 |--②-|
52
口口口口 |----|
口口口口 |----|
口口口口 |----|
口口口口 |----|
53
口口口口 |①---|
口口口口 |----|
口①①口 |----|
口②②口 |--②-|
54
口口口口 |----|
口口口口 |----|
口口口口 |----|
口口口口 |----|
55
口口口口 |①---|
口口口口 |②---|
①②③④ |③---|
口口口口 |④---|
56
口口口口 |①---|
口口口口 |----|
口口口口 |②---|
②口口① |----|
57
口口口口 |①---|
口口口口 |②---|
④③②① |③---|
口口口口 |④---|
58
口口口口 |①---|
口口口口 |----|
口口口口 |②---|
①口口② |----|
59
口口口口 |①---|
口口口口 |----|
口①①口 |----|
口口口口 |----|
60
口口口口 |----|
口口口口 |----|
口口口口 |----|
口口口口 |----|
61
口④④口 |①---|
③口口③ |②---|
口②①口 |③---|
口口口口 |--④-|
62
口口口口 |----|
口①①口 |--①-|
口口口口 |----|
口口口口 |----|
63
口口口口 |①---|
④口口④ |②---|
①②③口 |③---|
口口口口 |--④-|
64
口口口口 |----|
口口口口 |--①-|
①口口① |----|
口口口口 |----|
65
口口口口 |①---|
口口口口 |----|
③口口③ |②---|
口①②口 |--③-|
66
口口口口 |----|
①口口① |--①-|
口口口口 |----|
口口口口 |----|
67
口口口口 |①---|
③口口③ |----|
口②①口 |②---|
口口口口 |--③-|
68
口口口口 |----|
口口口口 |--①-|
①口口① |----|
口口口口 |----|
69
口④④口 |①---|
③口口③ |②---|
口①②口 |③---|
口口口口 |--④-|
70
口口口口 |----|
口①①口 |--①-|
口口口口 |----|
口口口口 |----|
71
口口口口 |①---|
④口口④ |②---|
①②③口 |③---|
口口口口 |--④-|
72
口口口口 |----|
口口口口 |--①-|
①口口① |----|
口口口口 |----|
73
口口口口 |①---|
口口口口 |----|
③口口③ |②---|
口①②口 |--③-|
74
口口口口 |----|
①口口① |--①-|
口口口口 |----|
口口口口 |----|
75
口口口口 |①---|
口口口口 |----|
口②①口 |②---|
口口口口 |----|
76
口①①口 |①---|
口②②口 |--②-|
口口口口 |----|
口口口口 |----|
77
口口口口 |①---|
口口口口 |----|
口②口口 |②---|
①口口口 |----|
78
口口口口 |①---|
口口口口 |----|
口口①口 |②---|
口口口② |----|
79
口口口口 |①---|
口口口① |----|
口口②口 |②---|
口口口口 |----|
80
口口口口 |①---|
②口口口 |----|
口①口口 |②---|
口口口口 |----|

不確定度: 0

最終更新:2016年04月15日 18:46