きゅん×きゅんばっきゅん☆LOVE
松下feat.Sota & wac

ADVANCED

Level: 6
BPM: 165
Notes: 444

1
口口口口 |----|
口口口口 |----|
口口口口 |----|
口口口口 |----|
2
口口口口 |①---|
口口口口 |----|
口①①口 |----|
口口口口 |----|
3
①口口口 |①---|
②①口口 |②---|
口②④④ |③-④-|
口口③③ |----|
4
①口口口 |--①-|
②口口口 |②---|
口口口口
口口口口

⑤⑤⑤⑤
口口口口
口口④④ |③-④-|
口口③③ |--⑤-|
5
口口口口 |----|
口口口口 |----|
口口口口 |----|
口口口口 |----|
6
口口口口 |----|
口口口口 |----|
口口口口 |----|
口口口口 |----|
7
①口口口 |①---|
②①口口 |②---|
口②④④ |③-④-|
口口③③ |----|
8
①口口口 |--①-|
②口口口 |②-③-|
③口口口
口口口口

⑥⑥⑥⑥
口口口口
口口⑤⑤ |④-⑤-|
口口④④ |--⑥-|
9
①①①① |----|
口口口口 |----|
口口口口 |----|
口口口口 |--①-|
10
口口口口 |----|
口③②口 |①---|
口①①口 |②-③-|
口口口口 |----|
11
口口口口 |①-②-|
口口口口 |③-④-|
口⑦⑥⑤ |--⑤-|
④③②① |⑥-⑦-|
12
④⑥口⑤ |--①-|
①②③口 |②-③-|
口口口口 |④---|
口口口口 |⑤-⑥-|
13
口口口口 |--①-|
④⑤②① |②-③-|
口③⑥口 |--④-|
口口口口 |⑤-⑥-|
14
口口口口 |--①-|
口口②① |②---|
口口口口 |③---|
口③③口 |----|
15
口②①① |①---|
口③⑤⑤ |②-③-|
口口④④ |--④-|
口口口口 |--⑤-|
16
口口口口 |--①-|
口口口口 |②---|
口③③口 |③---|
①口口② |----|
17
③口口⑥ |--①-|
②口口⑤ |②-③-|
①口口④ |--④-|
口口口口 |⑤-⑥-|
18
口口口口 |①---|
口①①口 |②-③-|
口⑤④口 |④-⑤-|
口③②口 |----|
19
①⑤⑤① |①---|
口③②口 |②-③-|
口④④口 |--④-|
口口口口 |--⑤-|
20
口⑤⑤① |①-②-|
口口口② |③-④-|
口口口③ |----|
口口口④ |⑤---|
21
口口口口 |①---|
口①①口 |----|
口④③口 |②---|
②口口口 |③-④-|
22
口口口口 |①-②-|
④③②① |③-④-|
口口口口 |----|
口⑤⑤口 |⑤---|
23
口①①口 |①---|
②口口② |----|
口③③口 |②---|
口口口口 |--③-|
24
口口②口 |①-②-|
口①口口 |--③-|
口口口口
口③③口

口口口口
口⑤口口
口口④口 |--④-|
口口口口 |⑤---|
25
①口口① |①---|
口③②口 |----|
口口口口 |----|
口口口口 |②-③-|
26
口②①口 |①-②-|
②口口① |--③-|
口口口口 |----|
口③③口 |----|
27
口口口口 |----|
口④③口 |①---|
②口口① |②---|
口口口口 |③-④-|
28
口口口口 |--①-|
口口口口 |--②-|
③④⑤口 |③-④-|
①口口② |⑤---|
29
口口口口 |----|
口④③口 |①---|
②口口① |②---|
口口口口 |③-④-|
30
④③②① |--①-|
口口口口 |②-③-|
口⑥⑤口 |④---|
口口口口 |⑤-⑥-|
31
口口口口 |----|
口④③口 |①---|
②口口① |②---|
口口口口 |③-④-|
32
口④④口 |--①-|
口口口口 |--②-|
口③③口 |③---|
①口口② |④---|
33
②④④① |----|
口②①口 |①---|
口③③口 |②---|
口口口口 |③-④-|
34
口口口口 |----|
口口口口 |--①-|
④口口③ |②-③-|
②口口① |④---|
35
①口口口 |①---|
②①口口 |②---|
口②口口
口口口口

口⑤⑤口
口⑤⑤口
口口④④ |③-④-|
口口③③ |--⑤-|
36
口口口① |--①-|
②④口口 |②-③-|
口口口③ |----|
口口口口 |--④-|
37
口②②口 |①---|
⑤口①口 |②---|
④口口口 |③---|
口③③口 |④-⑤-|
38
口口口口 |--①-|
口口②① |--②-|
口③③口 |----|
口口口口 |③---|
39
口①①口 |①---|
口口口④ |----|
口口口③ |②---|
口②②口 |③-④-|
40
口口口口 |--①-|
①②⑤口 |--②-|
口④③口 |--③-|
口口口口 |④-⑤-|
41
①④④① |①---|
口口③口 |----|
②口口② |②---|
口口口口 |③-④-|
42
口口口口 |--①-|
口①口口 |②-③-|
口口②口 |----|
④③口④ |④---|
43
①口口口 |①---|
②①口口 |②---|
口②口口
口口口口

口⑤⑤口
口⑤⑤口
口口④④ |③-④-|
口口③③ |--⑤-|
44
口口口① |--①-|
②口口口 |②-③-|
口口口③ |----|
④口口④ |④---|
45
②②①① |①---|
⑤口口口 |②---|
④口口口 |③---|
口③③口 |④-⑤-|
46
口口口口 |--①-|
口口②① |--②-|
口③④口 |--③-|
口口口口 |④---|
47
口①①口 |①---|
口口口④ |----|
口口口③ |②---|
口②②口 |③-④-|
48
口口口口 |--①-|
①②口口 |--②-|
口④③口 |----|
口口口口 |③-④-|
49
①口口① |①---|
口口口口 |----|
④口口⑤ |②-③-|
②口口③ |④-⑤-|
50
①⑥⑤④ |①-②-|
②①口口 |--③-|
口②口口 |--④-|
口③③口 |⑤-⑥-|
51
口口口口 |----|
口口口口 |----|
口口口口 |----|
口口口口 |----|
52
口口口口 |----|
口口口口 |----|
口口口口 |----|
口口口口 |----|
53
口口口口 |①---|
①②口⑤ |②---|
口④③口 |③-④-|
口口口口 |--⑤-|
54
口②②口 |--①-|
口口①口 |--②-|
口口口口 |----|
口口口口 |----|
55
口⑧⑦口 |①-②-|
口⑥⑤口 |③-④-|
口④③口 |⑤-⑥-|
口②①口 |⑦-⑧-|
56
口口口口 |--①-|
口⑦⑥⑤ |②-③-|
④③②① |④-⑤-|
口口口口 |⑥-⑦-|
57
口⑧⑦口 |①-②-|
口⑥⑤口 |③-④-|
口④③口 |⑤-⑥-|
口②①口 |⑦-⑧-|
58
口口口⑦ |--①-|
⑥口口① |②-③-|
②口口⑤ |④-⑤-|
④口口③ |⑥-⑦-|
59
口口口口 |----|
口口口口 |----|
口口口口 |----|
口口口口 |----|
60
口口口口 |----|
口口口口 |----|
口口口口 |----|
口口口口 |----|
61
①口口口 |①---|
②①口口 |②---|
口②口口
口口口口

口⑤⑤口
口⑤⑤口
口口④④ |③-④-|
口口③③ |--⑤-|
62
口口口① |--①-|
②④口口 |②-③-|
口口口③ |----|
口口口口 |--④-|
63
口②②口 |①---|
⑤口①口 |②---|
④口口口 |③---|
口③③口 |④-⑤-|
64
口口口口 |--①-|
口口②① |--②-|
口③③口 |----|
口口口口 |③---|
65
口①①口 |①---|
口口口④ |----|
口口口③ |②---|
口②②口 |③-④-|
66
口口口口 |--①-|
①②⑤口 |--②-|
口④③口 |--③-|
口口口口 |④-⑤-|
67
①④④① |①---|
口口③口 |----|
②口口② |②---|
口口口口 |③-④-|
68
口口口口 |--①-|
口①口口 |②-③-|
口口②口 |----|
④③口④ |④---|
69
①口口口 |①---|
②①口口 |②---|
口②口口
口口口口

口⑤⑤口
口⑤⑤口
口口④④ |③-④-|
口口③③ |--⑤-|
70
口口口① |--①-|
②口口口 |②-③-|
口口口③ |----|
④口口④ |④---|
71
②②①① |①---|
⑤口口口 |②---|
④口口口 |③---|
口③③口 |④-⑤-|
72
口口口口 |--①-|
口口②① |--②-|
口③④口 |--③-|
口口口口 |④---|
73
口①①口 |①---|
口口口④ |----|
口口口③ |②---|
口②②口 |③-④-|
74
口口口口 |--①-|
①②口口 |--②-|
口④③口 |----|
口口口口 |③-④-|
75
①口口① |①---|
口口口口 |----|
④口口⑤ |②-③-|
②口口③ |④-⑤-|
76
①⑥⑤④ |①-②-|
②①口口 |--③-|
口②口口 |--④-|
口③③口 |⑤-⑥-|
77
口口口口 |----|
口口口口 |----|
口口口口 |----|
口口口口 |----|
78
口口口口 |----|
口口口口 |----|
口口口口 |----|
口口口口 |----|
79
⑧口口① |①-②-|
②口口⑦ |③-④-|
⑥口口③ |⑤-⑥-|
④口口⑤ |⑦-⑧-|
80
口⑧①口 |①-②-|
口②⑦口 |③-④-|
口⑥③口 |⑤-⑥-|
口④⑤口 |⑦-⑧-|

不確定度: 0

最終更新:2016年04月15日 18:46