Love♥km
dj TAKA feat. REN

EXTREME

Level: 9
BPM: 184
Notes: 666

1
口口口口 |----|
口口口口 |----|
口口口口 |----|
口口口口 |----|
2
口口⑦口 |①-②-|
⑤⑥⑥③ |③-④-|
④④②② |⑤-⑥-|
①⑧⑧口 |⑦-⑧-|
3
②②口⑦ |①-②-|
⑥口口③ |③-④-|
④④①⑦ |⑤-⑥-|
⑥口口⑤ |--⑦-|
4
②②口⑦ |①-②-|
口⑥⑥③ |③-④-|
⑤⑧⑧口 |⑤-⑥-|
口①④④ |⑦-⑧-|
5
口②②口 |①-②-|
①⑥⑥③ |③-④-|
⑤⑦⑦口 |⑤-⑥-|
口④④口 |--⑦-|
6
②②④④ |①-②-|
⑤⑥⑥口 |③-④-|
口⑦口口 |⑤-⑥-|
③⑧⑧① |⑦-⑧-|
7
②②④④ |①-②-|
口口口③ |③-④-|
口口①口
口口口口

口口口口
⑥⑥口口
口口⑦⑦ |⑤-⑥-|
口口口⑤ |--⑦-|
8
②②口⑦ |①-②-|
口⑥⑥③ |③-④-|
⑤⑧⑧口 |⑤-⑥-|
口①④④ |⑦-⑧-|
9
①③②口 |--①-|
口口口口 |②-③-|
口口口口 |④-⑤-|
⑦⑤⑥④ |⑥-⑦-|
10
①口④口 |①-②-|
⑤④口口 |③-④-|
③⑥②口 |--⑤⑥|
⑦口⑧口 |⑦-⑧-|
11
④⑦⑥⑤ |①-②-|
口④口① |③-④-|
口口口口 |--⑤-|
口②口③ |⑥-⑦-|
12
⑤⑥⑦口 |①-②-|
④口②口 |③-④-|
口④口口 |--⑤-|
①口③口 |⑥-⑦-|
13
⑤口口⑥ |①-②-|
口②⑧④ |③-④-|
⑨⑦④口 |⑤-⑥-|
口③口① |⑦⑧-⑨|
14
⑤⑧口口 |①-②-|
⑦⑥口口 |③-④-|
口口④① |⑤-⑥-|
口口②③ |⑦-⑧-|
15
口口口口 |①-②-|
口口口口 |③-④-|
①④口口
③②口口

口口⑦⑥
口⑨⑤口
⑧口口口 |⑤-⑥-|
口口口口 |⑦⑧-⑨|
16
口口口口 |①-②-|
口口口口 |③-④-|
⑧④⑦③ |⑤-⑥-|
⑥②⑤① |⑦-⑧-|
17
①②③④ |①②③④|
⑧⑦⑥⑤ |⑤⑥⑦⑧|
⑪口口⑨ |⑨-⑩-|
口⑩口口 |⑪---|
18
②①②① |①--②|
口口口口 |----|
口②①口 |----|
口口口口 |----|
19
口口口口 |①②③④|
口③②① |⑤⑥⑦⑧|
口④⑨⑧ |⑨---|
口⑤⑥⑦ |----|
20
②③①口 |--①-|
口口⑤④ |②③-④|
⑥⑦口口 |⑤-⑥⑦|
口口⑨⑧ |-⑧⑨-|
21
③④口口 |①-②-|
①口⑥⑤ |③④-⑤|
⑦⑧口② |⑥-⑦⑧|
口口⑩⑨ |-⑨⑩-|
22
⑤口④③ |①-②-|
口①口口 |③④-⑤|
口口②口
口口口口

口⑥口口
⑨⑩⑧⑦
口口口口 |⑥-⑦⑧|
口口口口 |-⑨⑩-|
23
口口④③ |①-②-|
⑨⑩口口 |③④-⑤|
②口⑧⑦ |⑥-⑦⑧|
⑤⑥口① |-⑨⑩-|
24
⑤⑥⑧⑦ |①-②-|
口口口① |③④-⑤|
②口口口 |⑥-⑦⑧|
⑨⑩④③ |-⑨⑩-|
25
口口口口 |①-②-|
②口④③ |③④-⑤|
⑤⑥口① |⑥-⑦⑧|
⑨⑩⑧⑦ |-⑨⑩-|
26
③⑧①⑥ |①-②-|
⑤②口口 |③-④-|
口口⑦④ |⑤-⑥-|
口口口口 |⑦-⑧-|
27
口⑤口⑤ |①---|
③口③口 |②---|
口②口② |③---|
①④①④ |④-⑤-|
28
④⑥④⑥ |--①-|
③⑤③⑤ |--②-|
口②口② |③-④-|
①口①口 |⑤-⑥-|
29
口⑤口⑤ |①---|
③口③口 |②---|
口②口② |③---|
①④①④ |④-⑤-|
30
④④④④ |--①-|
③③③③ |--②-|
口②口② |③---|
①口①口 |④---|
31
口口口口 |①---|
③④③④ |②---|
①口①口 |③---|
⑤②⑤② |④-⑤-|
32
②③②③ |--①-|
④⑤④⑤ |②-③-|
口口口口 |④---|
⑥①⑥① |⑤-⑥-|
33
口②口② |①--②|
⑤口口口 |--③-|
⑥①④① |④--⑤|
口③口口 |--⑥-|
34
②⑥口④ |①--②|
口③①口 |--③-|
⑤口⑤口 |④--⑤|
口口口口 |--⑥-|
35
口口①口 |----|
口②③② |----|
口口口口 |--①-|
口口口口 |②-③-|
36
口⑥口⑤ |①-②-|
口口口口 |③---|
口①②① |④---|
口③④③ |⑤-⑥-|
37
口口①口 |----|
口口口口 |--①-|
③④③口 |--②-|
口②口口 |③-④-|
38
③④③口 |①-②-|
①②①口 |③-④-|
口⑦口⑦ |⑤---|
口⑤⑥⑤ |⑥-⑦-|
39
④口口口 |①---|
口②③② |②-③-|
口⑤①口 |----|
口口口口 |④-⑤-|
40
口口①口 |①---|
②口②④ |②-③-|
口口口口 |----|
口③⑤③ |④-⑤-|
41
口③④③ |①---|
⑤①口口 |②-③-|
②口②口 |----|
口口口口 |④-⑤-|
42
口口口口 |①---|
口口③⑦ |②-③-|
⑤⑥④口 |④-⑤-|
口①②① |⑥-⑦-|
43
口②④② |①---|
口⑤⑥⑤ |②---|
口口口口 |③-④-|
③口③① |⑤-⑥-|
44
口⑥口⑤ |①-②-|
口口口口 |③---|
口①②① |④---|
口③④③ |⑤-⑥-|
45
口口①口 |----|
口口口口 |--①-|
③④③口 |--②-|
口②口口 |③-④-|
46
③④③口 |①-②-|
①②①口 |③-④-|
口⑦口⑦ |⑤---|
口⑤⑥⑤ |⑥-⑦-|
47
③口口口 |----|
口②口② |①-②-|
口④①口 |----|
口口口口 |③-④-|
48
口口①口 |①---|
②口③④ |②-③-|
口口口口 |----|
口③⑤② |④-⑤-|
49
口③④② |①---|
口①口口 |②-③-|
②口③口 |----|
口口口口 |④---|
50
口口口口 |①---|
口口③口 |②-③-|
⑤⑦④⑥ |④-⑤-|
口①②① |⑥-⑦-|
51
口口口口 |①---|
④③②④ |②---|
口口口口 |③---|
①②③① |④---|
52
①①①① |①--②|
⑤口⑤口 |--③-|
④②⑥② |④--⑤|
口③口口 |--⑥-|
53
口②③② |①--②|
口④口① |--③-|
口⑤⑤口 |④---|
口⑥⑥口 |⑤-⑥-|
54
口口③④ |①--②|
口口②② |--③-|
口口口① |④--⑤|
口口⑥⑤ |--⑥-|
55
②②②口 |①---|
③③③① |②---|
④④④口 |③---|
口口口口 |④---|
56
口②口② |①--②|
⑤④⑤口 |--③-|
口口⑥③ |④--⑤|
①①①口 |--⑥-|
57
口②③② |①--②|
口④口① |--③-|
⑤口口⑤ |④---|
口⑥⑥口 |⑤-⑥-|
58
②口②④ |①--②|
①口③① |--③-|
⑤口⑤口 |④--⑤|
口口⑥口 |--⑥-|
59
口口口口 |①--②|
②③②口 |--③-|
口口口口
①①口口

口口口口
口口口④
口口⑤口 |④-⑤-|
⑦口口⑥ |⑥-⑦-|
60
①①①① |①--②|
⑤口⑤口 |--③-|
④②⑥② |④--⑤|
口③口口 |--⑥-|
61
口②③② |①--②|
口④口① |--③-|
⑤口⑤口 |④---|
口⑥⑥口 |⑤-⑥-|
62
口口③④ |①--②|
口口②② |--③-|
口口口① |④--⑤|
口口⑥⑤ |--⑥-|
63
②②②口 |①---|
③③③① |②---|
④④④口 |③---|
口口口口 |④---|
64
口②口② |①--②|
⑤④⑤口 |--③-|
口口⑥③ |④--⑤|
①①①口 |--⑥-|
65
口②③② |①--②|
口④口① |--③-|
口⑤⑤口 |④---|
口⑥⑥口 |⑤-⑥-|
66
②口②④ |①--②|
①口③① |--③-|
⑤口⑤口 |④--⑤|
口口⑥口 |--⑥-|
67
口口口口 |①--②|
②口②④ |--③-|
口③⑤口 |④-⑤-|
①⑦口⑥ |⑥-⑦-|
68
①①①① |①-②-|
⑤口⑥口 |③-④-|
口④口② |⑤-⑥-|
③⑦⑧口 |⑦-⑧-|
69
②口口⑦ |①-②-|
⑥①口③ |③-④-|
口④口⑦ |⑤-⑥-|
⑥口口⑤ |--⑦-|
70
②口口⑦ |①-②-|
口⑥口③ |③-④-|
⑤口⑧口 |⑤-⑥-|
口①口④ |⑦-⑧-|
71
口口②口 |①-②-|
①⑥⑥③ |③-④-|
⑤⑦⑦口 |⑤-⑥-|
口口④口 |--⑦-|
72
②口④口 |①-②-|
⑤口⑥口 |③-④-|
口⑦口口 |⑤-⑥-|
③口⑧① |⑦-⑧-|
73
②口④口 |①-②-|
口口口③ |③-④-|
口口口①
口口口口

口口口口
⑥⑥口口
口口⑦⑦ |⑤-⑥-|
口口口⑤ |--⑦-|
74
②口口⑦ |①-②-|
口⑥⑥③ |③-④-|
⑤⑧⑧口 |⑤-⑥-|
①口④口 |⑦-⑧-|
75
⑥③①⑥ |①-②-|
口⑤⑤口 |③-④-|
口口口口 |--⑤-|
②②④④ |--⑥-|


不确定度: 0

タグ:

+ タグ編集
  • タグ:

このサイトはreCAPTCHAによって保護されており、Googleの プライバシーポリシー利用規約 が適用されます。

最終更新:2012年11月10日 14:23