キセキ [2]


ADVANCED

Level: 5
BPM: 94
Notes: 353

1
口口口口 |----|
口②口口 |----|
口①口口 |----|
口口口口 |①-②-|
2
口①④⑤ |①---|
口口③⑥ |②-③-|
口口②⑦ |④-⑤-|
口口口口 |⑥-⑦-|
3
口口口口 |①-②-|
口口口口 |③-④-|
|⑤---|
④③②①

口口口口
⑦口口口
口口口
口口口口 |⑥-⑦-|
4
口口口口 |①-②-|
口②③① |③-④-|
口④ |⑤---|
口口口口

口口口口
口⑥⑦口
口口
口口口口 |⑥-⑦-|
5
①口口② |①-②-|
③⑦口④ |③-④-|
口⑥口口 |⑤---|
口⑤⑤口 |⑥-⑦-|
6
口①④⑤ |①---|
口口③⑥ |②-③-|
口口②⑦ |④-⑤-|
口口口口 |⑥-⑦-|
7
口口口口 |①-②-|
口口口口 |③-④-|
|⑤---|
④③②①

口口口口
口⑦口口
口口口
口口口口 |⑥-⑦-|
8
口口口口 |①-②-|
②口①③ |③-④-|
④口 |⑤---|
口口口口

口口口口
口口
口口口
口口口口 |⑥---|
9
|①---|
口口口 |----|
口口口口
口口口口

口口口
③④口口
口口口口 |②---|
口口口口 |③-④-|
10
⑤③③口 |①---|
口口①口 |②---|
口②②口 |③---|
④口口④ |④-⑤-|
11
口口口 |①-②-|
①②③ |③-④-|
口口口口
口口口口

口口口口
口口口
⑥口口口 |----|
口口口口 |⑤-⑥-|
12
口口口口 |①-②-|
口④④口 |③-④-|
口②③①
口口口口

口口口口
⑤口口⑤
⑥口口⑥ |--⑤-|
⑦口口⑦ |⑥-⑦-|
13
口①②口 |①-②-|
口③④口 |③-④-|
⑦口口口 |⑤---|
⑥⑤⑤口 |⑥-⑦-|
14
|①---|
①口口口 |②---|
口口口口
口口口口

③口口
口④⑤口
口口口口 |③-④-|
⑥口口⑥ |⑤-⑥-|
15
③ |①-②-|
② |③-④-|
①口口①
口口口口

口口口口

口口口口 |----|
⑥口口⑥ |⑤-⑥-|
16
③口口③ |①-②-|
②口口② |③-④-|
①④④①
口口口口

口口口口
⑤⑥⑦口
口口口口 |--⑤-|
口口口口 |⑥-⑦-|
17
口口口口 |①-②-|
口口口口 |③-④-|
④③②①
口口口口

口⑤⑤口
口⑥⑥口
口⑦⑦口 |⑤-⑥-|
口⑧⑧口 |⑦-⑧-|
18
①口口口 |①-②-|
②③⑥⑤ |③-④-|
口④⑦口 |⑤-⑥-|
口口口口 |⑦---|
19
口口口口 |①-②-|
口④⑦口 |③-④-|
②③⑥⑤ |⑤-⑥-|
①口口口 |⑦---|
20
口⑧⑧口 |①-②-|
①②③口 |③-④-|
口⑤④口 |⑤-⑥-|
口⑥⑦口 |⑦-⑧-|
21
口口口口 |①-②-|
①②②① |③-④-|
③④④③
口口口口

口⑥⑥口
口⑦⑦口
口口口口 |⑤---|
⑤口口⑤ |⑥-⑦-|
22
口口口口 |①---|
口口口口 |②---|
口①①口


口口口口
口口口口
口⑤⑤口 |③---|
④④③ |④-⑤-|
23
|①---|
口①①口 |②---|
口口口口
口口口口

④口③
口⑤口口
口口口口 |③---|
口口口口 |④-⑤-|
24
口口②口 |①---|
口口③口 |②-③-|
口① |④---|
口口口口

⑥口口口
口口口口
口口
⑤口口⑤ |⑤-⑥-|
25
口①②口 |①-②-|
④③ |③-④-|
口口口口 |⑤---|
口口口口

口口口口
口口
口口口口
口口口口 |⑥---|
26
①②③④ |①-②-|
|③-④-|
口口口口 |⑤---|
口口口口

口口口口
口口⑥
口口口口
口口口口 |⑥---|
27
口口口口 |①-②-|
口口口口 |③-④-|
①②③④ |⑤---|


口口口口
口口口口
口口口口
口口⑥ |⑥---|
28
⑧③⑦口 |①-②-|
口②⑥口 |③-④-|
口①⑤④ |⑤-⑥-|
口口口口 |⑦-⑧-|
29
口口口① |①-②-|
②口口③ |③-④-|
④口 |⑤---|
口口口口

口⑥⑦口
口口口口
口口口
口口口口 |⑥-⑦-|
30
口口口口 |①---|
口①口口 |②---|

口口口口

口口口口
口口④口
⑤口③ |③---|
口口口口 |④-⑤-|
31
口口口口 |①---|
口口口口 |②---|
口口①口


口口口口
口⑤⑤口
口④④口 |③---|
口口③ |④-⑤-|
32
口①①口 |①---|
|②-③-|
③口口③ |④---|
②口口②

口⑥口口
⑤口口
口口口口
口口口口 |⑤-⑥-|
33
口口①口 |①-②-|
口②③口 |③-④-|
口④口口
口口口口
34
口口口口 |①---|
口口口口 |----|
口口口 |----|
口口口 |----|
35
口口口口 |----|
②③④⑤ |①-②-|
口口⑥ |③-④-|
口口口口 |⑤-⑥-|
36
口口口口 |①---|
口口口口 |----|

口口口口

口口③口
口口口口
口口口 |----|
口口口口 |②-③-|
37
口口口口 |①---|
口 |----|
口口口口 |----|
口口口口 |----|
38
口口口口 |①---|
口口口 |----|
口口口口 |----|
口口口口 |----|
39
口口口口 |----|
口②②口 |----|
口①①口 |----|
口口口口 |①-②-|
40
⑤①①⑤ |①---|
④口口④ |②-③-|
③⑦⑦③ |④-⑤-|
②⑥⑥② |⑥-⑦-|
41
口②②口 |①-②-|
④①①④ |③-④-|
③口口③
口口口口


口口口口
口口口口 |⑤---|
口口口口

口口
口⑦口口
口口口口
口口口口 |⑥-⑦-|
42
口口口口 |①-②-|
口口①口 |③-④-|
口②③口 |⑤---|
口④

⑦口口口
口口口口
口口口口
口口口 |⑥-⑦-|
43
口口口① |①-②-|
口④⑤口 |③-④-|
②⑦⑦③ |⑤---|
口⑥⑥口 |⑥-⑦-|
44
口口口口 |①---|
③①①③ |②-③-|
②口口②
口口口口

④口口④
口⑦⑦口
口⑥⑥口 |④-⑤-|
口⑤⑤口 |⑥-⑦-|
45
②口口② |①---|
②口口② |----|
①口口① |②---|
①③口① |--③-|
46
口④③口 |①-②-|
口②口口 |③-④-|
口口①口
口口口口


口口口口
口口口口 |⑤---|
口口口口

口口口

口口口口
口口口口 |⑥---|
47
口 |①---|
|----|



口口口口
口口口口
口口口口 |----|
口 |②---|

不確定度: 0

最終更新:2016年04月12日 03:05