Synchrogazer [2]


BASIC

Level: 2
BPM: 159
Notes: 185

1
口口口口 |----|
口口口口 |----|
口口口口 |----|
口口口口 |----|
2
口口口口 |----|
口口口口 |----|
口口口口 |----|
口口口口 |----|
3
口口口口 |①---|
①②③④ |②---|
口口口口 |③---|
口口口口 |④---|
4
口口口口 |①---|
口口口口 |②---|
④③②① |③---|
口口口口 |④---|
5
①口口口 |①---|
②口口口 |②---|
口③口口 |③---|
口④口口 |④---|
6
口口口① |①---|
口口口② |②---|
口口③口 |③---|
口口④口 |④---|
7
口口口口 |----|
口①①口 |----|
口口口口 |①---|
口口口口 |----|
8
口口 |①---|
口口 |----|
口口 |----|
口口 |----|
9
口口 |----|
口口口口 |----|
口口口口 |①---|
口②②口 |②---|
10
口 |①---|
口 |----|
口 |----|
口口口口 |----|
11
口 |----|
口口口口 |----|
口口口口 |----|
口口口口 |①---|
12
口口口口 |①---|
①口口口 |----|
口口口口 |----|
口口口口 |----|
13
口口口口 |①---|
口口口① |----|
口口口口 |----|
口口口口 |----|
14
口口口口 |①---|
口口口口 |----|
①口口② |②---|
口口口口 |----|
15
口口口口 |①---|
口①①口 |----|
②口口③ |②---|
口口口口 |③---|
16
口口口口 |----|
口口口口 |----|
口口口口 |----|
口口口口 |----|
17
口口口口 |----|
口口口口 |----|
口口口口 |----|
口口口口 |----|
18
①口口口 |----|
①口口口 |----|
口口口口 |①---|
口口口口 |----|
19
口口口① |----|
口口口① |----|
口口口口 |①---|
口口口口 |----|
20
口口口口 |----|
②②②② |①---|
①①①① |--②-|
口口口口 |----|
21
|①---|
|----|
|----|
|----|
22
|①---|
口口口口 |----|
②口口口 |②---|
②口口口 |----|
23
口口口口 |----|
口口口口 |----|
口口口① |①---|
口口口① |----|
24
口口口口 |----|
②②②② |①---|
①①①① |--②-|
口口口口 |----|
25
①①①① |①---|
口口口口 |----|
口口口口 |----|
口口口口 |----|
26
口口口口 |①---|
口口口口 |----|
①口口② |②---|
①口口② |----|
27
口 |①---|
口 |----|
口口口口
口口口口

口口口口

口口口口 |----|
口口口口 |②---|
28
①口口② |①---|
口口口口 |----|
口口口口 |②---|
口口口口 |----|
29
口口口口 |①---|
①口口② |----|
口口口口 |②---|
口口口口 |----|
30
口②②口 |①---|
口口口口 |----|
口口口口 |②---|
口①①口 |----|
31
②口口② |①---|
口口口口 |----|
口口口口 |②---|
①口口① |----|
32
口口口口 |①---|

口口口口
口口口口

口口口口
口口③ |--②-|
口口口口 |③---|
口口口口 |----|
33
①口口① |①---|
口②②口 |----|
口口口口 |②---|
口口口口 |----|
34
口口口口 |①---|
口口口口 |----|
口①①口 |----|
口口口口 |----|
35
口口口口 |①---|
①②③④ |②---|
口口口口 |③---|
口口口口 |④---|
36
口口口口 |①---|
口口口口 |----|

口口口口

口口口口
口口口口
口口口 |----|
口口口口 |--②-|
37
口口口口 |----|
口口口口 |----|
口口口口 |----|
口口口口 |----|
38
口口口口 |①---|
口口口口 |----|
|----|
口口口口 |----|
39
口口口口 |----|
口口口口 |----|
口口口口 |----|
口口口口 |----|
40
口口口口 |①---|
口口口口 |----|
①①口 |----|
口口口口 |----|
41
口①①口 |①---|
口口口口 |----|
口口口口 |----|
口口口口 |----|
42
①口口① |①---|
口口口口 |----|
口口口口 |----|
口口口口 |----|
43
口口口口 |①---|
口口口口 |----|
口②②口 |②---|
口①①口 |----|
44
口口口口 |①---|
口①①口 |----|
口口口口 |----|
口口口口 |----|
45
口口口口 |①---|
①口口口 |----|
①口口口 |----|
口口口口 |----|
46
口口口口 |①---|
口口口① |----|
口口口① |----|
口口口口 |----|
47
口①①口 |①---|
口②②口 |----|
口口口口 |②---|
口口口口 |----|
48
口口口口 |①---|
口口口口 |----|



口口口口
口口口口
口 |②---|
口口口口 |----|
49
口口 |①---|
口口 |----|
口口口口
口口口口

口口
口口口口
口口口口 |②---|
口口口口 |----|
50
口口口口 |①---|
口①①口 |----|
口②②口 |②---|
口口口口 |----|
51
口口口口 |①---|
②口口② |----|
①口口① |②---|
口口口口 |----|
52
①②③④ |①---|
口口口口 |②---|
口口口口 |③---|
口口口口 |④---|
53
口口口口 |①---|
口 |----|

口口口口

口口口口
口口口口
口 |②---|
口口口口 |----|
54
口口口口 |①---|
①口口① |----|
口口口口 |----|
口口口口 |----|
55
①口口① |①---|
口口口口 |----|
②口口② |----|
口口口口 |②---|
56
口口口口 |①---|
①口口① |----|
口口口口 |----|
口口口口 |----|
57
口①②口 |①---|
口③④口 |②---|
口口口口 |③---|
口口口口 |④---|
58
口口口口 |①---|
口口口口 |----|

口口口口

口口口口
口口口口
口口口 |----|
口口口口 |②---|
59
口口口口 |①---|
口口口口 |----|

口口口口

口口口口
口口口口
口口口 |----|
口口口口 |②---|
60
口口 |①---|
口口 |----|
口口口口 |----|
口口口口 |----|
61
口口口口 |----|
口口口口 |----|
口口口口 |----|
口口口口 |----|
62
口口口口 |----|
口口口口 |----|
口口口口 |----|
口口口口 |----|
63
口口口口 |①---|
口口 |----|
口口口口 |----|
口口口口 |----|
64
口口口口 |①---|
口①①口 |----|
口口口口 |----|
口口口口 |----|
65
口口口口 |①---|
口口口口 |----|
口①①口 |----|
口口口口 |----|
66
口口口口 |①---|
①口口① |----|
①口口① |----|
口口口口 |----|
67
口口 |①---|
口口 |----|
口口 |----|
口口 |----|
68
口口口口 |----|
口口口口 |----|
口口口口 |----|
口口口口 |----|
69
口口口口 |----|
口口口口 |----|
口口口口 |----|
口口口口 |----|
70
口口口口 |①---|
口口口口 |----|
口口口口 |----|
口口 |----|

不確定度: 0

最終更新:2016年04月11日 22:38