Synchrogazer [2]


EXTREME

Level: 9
BPM: 159
Notes: 626

1
口口口口 |----|
口口口口 |----|
口口口口 |----|
口口口口 |----|
2
口口口④ |①②③-|
①②③口 |④-⑤⑥|
⑤⑥口口
口口口口

口口口口
⑪⑫口⑧
口口⑦口 |⑦-⑧-|
⑨⑩⑪口 |⑨⑩⑪⑫|
3
②口口③ |①-②-|
⑨口①⑨ |③-④⑤|
口④⑤口 |-⑥⑦-|
⑧⑥⑦⑧ |⑧-⑨-|
4
③①①③ |①-②-|
口口口口 |③-④⑤|
口②②⑤
口口④口

口⑨⑨口
口⑥⑥口
⑧口口口 |-⑥-⑦|
口⑦口口 |⑧-⑨-|
5
⑦口口⑤ |①-②-|
②⑥④② |③-④⑤|
⑨①①⑨ |-⑥⑦-|
③⑧⑧③ |⑧-⑨-|
6
⑥①①口 |①-②③|
⑦④⑤口 |--④-|
⑧②③⑪ |⑤---|
⑨口口⑩ |⑥⑦⑧⑨⑩⑪|
7
口①口口 |--①-|
③①②③ |--②-|
口①①口 |③---|
④④④④ |④---|
8
①①① |①---|
口②口 |--②-|
口口②
口口口

口③口口
口口口口
③口口口 |----|
口口口口 |③---|
9
口口口口 |--①-|
①口口口 |--②-|
口②②口
口①口口

④④⑤
口③③口
口口口口 |③--④|
⑥⑥口口 |⑤-⑥-|
10
口口口口 |①---|
②②口 |--②-|
③③口 |----|
口口口 |③---|
11
口②②口 |--①-|
口口口口 |--②-|
口口①口
口①口口

口口口口
⑤口④口
口⑥⑦口 |③-④-|
口口③口 |⑤-⑥⑦|
12
口②③口 |①-②-|
口①⑥ |③-④⑤|
⑦口口⑤ |----|
口口口④ |--⑥⑦|
13
⑤④口口 |①-②-|
口口口③ |③-④⑤|
口②口口 |----|
口口①口 |----|
14
⑤③④⑤ |①--②|
口③④口 |--③-|
②口口② |④---|
①口口① |⑤---|
15
⑧口⑤⑫ |①②③④|
⑨⑥⑦⑬ |-⑤⑥⑦|
⑩③④⑭ |⑧⑨⑩⑪--|
⑪①②⑮ |⑫⑬⑭⑮--|
16
口①①口 |①---|
②口口③ |②---|
④①①口 |③---|
口口口口 |④---|
17
口口口口 |①---|
口②③口 |②---|
口④口① |③---|
口口口口 |④---|
18
②⑧口口 |①-②-|
③口口⑦ |③-④-|
④口①⑥ |⑤-⑥⑦|
⑤口口口 |--⑧-|
19
口口口口 |①-②-|
⑦⑥①口 |③-④-|
口②⑤口 |⑤-⑥⑦|
口④③口 |----|
20
口①②口 |----|
口②①口 |①---|
口①②口 |--②-|
口口口口 |----|
21
口②②口 |①---|
口③③口 |----|
|②---|
|③---|
22
③口口② |①-②-|
口口口④ |③-④-|
口口口
口口口

口口口口
⑤口口口
⑨口口⑦ |⑤-⑥⑦|
口⑧⑥口 |--⑧⑨|
23
②口⑦① |①-②-|
③口⑥④ |③-④-|
口⑤口口 |⑤-⑥⑦|
口口口口 |----|
24
①口口① |----|
②②②② |①---|
口口口口 |--②-|
口口口口 |----|
25
②②口口 |①--②|
口口口口 |--③-|
①①
③③

口口口口
口口⑥口
口⑤ |④---|
口口口口 |⑤-⑥-|
26
口①口口 |①--②|
口口口④ |--③-|
口⑤⑤口 |④---|
②口口③ |⑤---|
27
①口口① |①--②|
口②②口 |--③-|
口口口口
③口口③

口⑥口口
口口⑦口
④口口⑤ |④--⑤|
口口口口 |--⑥⑦|
28
④⑤⑤④ |①--②|
口③口口 |--③-|
⑥①③⑥ |④--⑤|
②口口② |--⑥-|
29
口③③口 |①--②|
口②②口 |--③-|
口口口口
口①①口

口口口口
④口口⑤
⑥口⑥口 |④--⑤|
口⑥口⑥ |--⑥-|
30
④①①④ |--①-|
②口口③ |②-③-|
⑥⑥⑥⑥ |④--⑤|
口⑤⑤口 |--⑥-|
31
③口口口 |--①-|
①④④② |②-③-|
口⑤⑤口 |④--⑤|
|--⑥-|
32
口口口口 |----|
口②③④ |①-②③|
⑤口口⑥ |④--⑤|
口 |--⑥-|
33
口③③口 |----|
口口口口 |①---|
口②②口 |②---|
口①①口 |③---|
34
③口口③ |①--②|
⑤①①⑤ |--③-|
口④④口 |④--⑤|
⑥②②⑥ |--⑥-|
35
⑥口口⑤ |①-②-|
⑧④③⑦ |③-④-|
②口口① |⑤-⑥-|
口④③口 |⑦-⑧-|
36
③③口口 |①---|
口口口口 |②-③-|
口口④④ |--④-|
②②①口

口口
口口
口口
口口 |--⑤-|
37
口口 |----|
口①口口 |----|
口口②口 |----|
口口口口 |①-②-|
38
①⑤⑤口 |①---|
①④④口 |②-③-|
③口口口 |--④-|
③口②② |--⑤-|
39
⑥口口⑦ |--①-|
口④⑤口 |②-③-|
口②③口 |④-⑤-|
①口口① |⑥-⑦-|
40
口口口口 |①②--|
口③口③ |--③-|
口①②口
口①②口

口口口口
口口口口
⑤口口口 |--④⑤|
④口⑥⑥ |--⑥-|
41
⑧③⑤⑧ |①-②③|
②⑦⑦④ |-④⑤-|
口口①① |--⑥-|
口⑥⑥口 |⑦-⑧-|
42
口③⑤口 |①-②③|
②口口④ |-④⑤-|
①口口①
口口口口

口口口口
口⑦⑦口
⑧口口⑧ |--⑥-|
⑥口口⑥ |⑦-⑧-|
43
①⑤⑤① |①---|
④口口④ |②---|
口③③口 |③--④|
口②②口 |--⑤-|
44
口口口 |①---|
口②② |②---|
口口口
①口口

④口口⑤
口口口口
口③③口 |③---|
口口口 |④-⑤-|
45
|①--②|
口口口口 |--③-|
①②③口 |--④-|
口①②③

口口口
口⑤⑥口
⑦口口⑧
口口口口 |⑤⑥⑦⑧|
46
口③③口 |①--②|
口口口口 |--③-|
口①口口
口②②口

口口口口
口口口口
|--④-|
口口口口

口口口口
⑤⑥口口
口口口
口口口口 |--⑤⑥|
47
②⑤⑤② |①--②|
⑥口①⑥ |--③-|
口④④口 |④--⑤|
③口口③ |--⑥-|
48
①口口② |①-②-|
口③④口 |③-④-|
⑤口口⑥ |⑤-⑥-|
口⑦⑧口 |⑦-⑧-|
49
③①②④ |①②③④|
⑤口口⑥ |⑤⑥⑦⑧|
口⑦⑧口
口口口口

⑭⑭口口
口口口口
⑬口口口 |⑨⑩⑪⑫|
⑨⑪⑫⑩ |⑬-⑭-|
50
口口⑤③ |①-②③|
⑧口①① |-④⑤-|
口口④② |--⑥-|
⑥口口⑦ |⑦-⑧-|
51
口③⑤口 |①-②③|
口口口① |-④⑤-|
口②④口
口口口口

⑧口口⑧
⑦口口⑦
⑥口口⑥ |--⑥-|
口口口口 |⑦-⑧-|
52
口口口口 |①---|
口口口口
口口口口


⑥口口⑥
口④④口 |②--③|
③②②③ |④--⑤|
口⑤⑤ |--⑥-|
53
口②②口 |①---|
①口口① |②---|
口口口口
口口口口

口口口口
口口口⑥
口③④口 |③-④-|
⑤口口口 |⑤-⑥-|
54
①①④⑤ |①--②|
③③口口 |--③-|
②②⑥⑦ |④-⑤-|
口口口口 |⑥-⑦-|
55
口口口口 |①-②-|
口口④④ |③-④-|
②②口口
①①③③

口口⑤⑤
口口口口
口口口⑥ |⑤---|
⑥口口口 |⑥---|
56
口口口口 |①---|
口口口口 |----|



口口口口
口③③口
口口口 |----|
口口口 |②-③-|
57
口口口口 |----|
③口口③ |①---|
②口口② |②---|
口①①口 |③---|
58
口①①口 |①--②|
口②②口 |--③-|



口口口口
口口口口
口 |----|
口口口口 |④---|
59
口口 |①--②|
口口 |--③-|
①口口②
②口口①

口口
口口口口
口口口口 |----|
口口口口 |④---|
60
口口 |①--②|
口口 |--③-|
②②口口 |----|
口口①① |----|
61
①①口口 |①--②|
③口口口 |--③-|
口口口口
②②口口

⑥⑥口口
口④口口
⑤⑤口口 |④--⑤|
口口口口 |--⑥-|
62
⑥⑦口口 |①-②-|
③⑨口口 |③-④⑤|
④⑤口口 |-⑥⑦-|
①⑧②口 |⑧-⑨-|
63
⑥口⑤④ |①-②-|
③口 |③-④⑤|
⑦⑧口⑨ |-⑥-⑦|
①口口② |⑧-⑨-|
64
口③口口 |①-②-|
①⑦⑤② |③-④⑤|
口⑥④口 |-⑥⑦-|
⑧口口⑨ |⑧-⑨-|
65
口④⑤③ |①-②③|
①④⑤② |--④-|
口口口口 |⑤---|
⑥口口⑥ |⑥---|
66
口 |①---|




③③③③
口⑤⑤口 |②---|
②④④② |③--④|
口 |--⑤-|
67
④ |①-②-|
② |--③-|
③ |④---|
①⑤⑤① |⑤-⑥-|
68
口口口口 |----|
口口口口 |----|
口口口口 |----|
口口口口 |----|
69
口口口口 |----|
口口口口 |----|
口口口口 |----|
口口口口 |----|
70
口 |①---|
口口口口 |----|
口口口口 |----|
口口口口 |----|

不確定度: 0

最終更新:2016年04月11日 22:38