にんじゃりばんばん [2]
きゃりーぱみゅぱみゅ

ADVANCED

Level: 6
BPM: 130
Notes: 359

1
口口口口 |----|
口口口口 |----|
口口口口 |----|
口口口口 |----|
2
口口口口 |①---|
口口口口 |----|
口口口
口口口

口口口口
口口
口口 |②---|
口口口 |----|
3
口口口 |①---|
口口口 |----|
口口
口口口口

口口口
口口
口口口口 |②---|
口口口口 |----|
4
口口口 |①---|
口口口口 |----|
口口口
口口口

口口口口
口口
口口口 |②---|
口口口 |----|
5
口口 |①---|
口口 |----|
口口
口口口口

口口口
口口
口口口口 |②---|
口口口口 |----|
6
|①---|
口口口口 |----|
口口口口
口口口口

口口口

口口口口 |②---|
口口口口 |----|
7
口口口口 |①---|
口口口 |----|

口口口口

口口口口
口口口口
口口口 |②---|
口口

口口口口
口口口口
口口
口口口 |③---|
8
口口口口 |①---|
|----|
口口口 |----|
口口口口 |----|
9
口③口口 |①---|
①口④ |--②-|
口⑤②口 |③-④-|
口口⑥口 |⑤-⑥-|
10
口口口口 |①---|
口口口口

口口口口

⑤口口④
口③口口 |②-③-|
口⑥② |④-⑤-|
⑦口口口 |⑥-⑦-|
11
口口口口 |①---|

口口口口
口口口口

口④口口
②口⑤ |②-③-|
口口③口 |④-⑤-|
⑥口口⑦ |⑥-⑦-|
12
口口口口 |①---|
①①口口 |②---|
口⑤②② |③---|
③③④口 |④-⑤-|
13
口口口① |①-②-|
②口口口 |③-④-|
口口口③ |⑤---|
④口⑤口 |----|
14
口口口口 |①---|
口口口口

口口口口

⑤口口④
口③口口 |②-③-|
口⑥② |④-⑤-|
⑦口口口 |⑥-⑦-|
15
口口口口 |①---|

口口口口
口口口口

口口口⑦
②口口 |②-③-|
口⑥③口 |④-⑤-|
口④⑤口 |⑥-⑦-|
16
①①口口 |①---|
口口②② |②---|
③③口口 |③---|
口⑤④口 |④-⑤-|
17
口口①口 |①-②-|
口②口口 |③-④-|
口口③口 |⑤---|
④口口⑤ |----|
18
口口口口 |①---|
口口口口

口口口口

⑤口口④
口③口口 |②-③-|
口⑥② |④-⑤-|
⑦口口口 |⑥-⑦-|
19
口口口口 |①---|

口口口口
口口口口

口④口口
②口⑤ |②-③-|
口口③口 |④-⑤-|
⑥口口⑦ |⑥-⑦-|
20
口口口口 |①---|
①①口口 |②---|
口⑤②② |③---|
③③④口 |④-⑤-|
21
口口口① |①-②-|
②口口口 |③-④-|
口口口③ |⑤---|
④口⑤口 |----|
22
口口口口 |①---|
口口口口

口口口口

⑤口口④
口③口口 |②-③-|
口⑥② |④-⑤-|
⑦口口口 |⑥-⑦-|
23
口口口口 |①---|

口口口口
口口口口

口口口⑦
②口口 |②-③-|
口⑥③口 |④-⑤-|
口④⑤口 |⑥-⑦-|
24
①①口口 |①---|
口口②② |②---|
③③口口 |③---|
口⑤④口 |④-⑤-|
25
口口①口 |①-②-|
口②口口 |③-④-|
口口③口 |⑤---|
④口口⑤ |----|
26
口 |①---|
口口④口 |②---|
口口③口 |③---|
口口②口 |④---|
27
口口口 |①---|
|②---|
口口口口
口②口口

口口口口
口④口口
口③口口 |③---|
口口口口 |④---|
28
口口②口 |①---|
口口口 |②---|

口口口口

口口口口
口口③口
口口④口 |③---|
口口口口 |④---|
29
口口口口 |①---|
口②口口 |②---|
③口口 |③---|
|----|
30
口口口 |①---|
口口口 |----|
口口口
口口

口口②口
口③口口
口口④口 |--②-|
口口口 |③-④-|
31
口口 |①---|
口口 |----|
口口
口口

口口口口
口口③口
口④口口 |②---|
口口 |③-④-|
32
口口口 |①---|
口口口 |----|
口口口
口口口

口口口口
口口③口
口②口口 |----|
口口口 |②-③-|
33
口 |①---|
口口口口 |----|
口口口口
口口口口

口口口

口口口口 |②---|
口口口口 |----|
34
口口 |①---|
|----|
口口
口口

口口
口口③口
口④口口 |②---|
口口口口 |③-④-|
35
口口口口 |①---|
口③口口 |②---|
口④②口 |③---|
口口①口 |④---|
36
口口口 |①---|
口口口 |--②-|
口口口 |----|
口①口 |----|
37
②口口 |①---|
口③口口 |----|
口口口口 |②---|
口口口口 |③---|
38
口口口 |①---|
口口口 |----|
口口
口口口口

口口口口
口③口口
口口④ |②---|
口口口口 |③-④-|
39
口口口口 |①---|
口口口 |----|
口口口
口口口

口口②口
口③口口
口口④口 |--②-|
口口口 |③-④-|
40
口口口口 |①---|
口口 |----|
口口
口口

口口口口
口口口口
④口口口 |②---|
③口 |③-④-|
41
|①---|
口口口口
口口口口
口口口口

口口口
口 |②---|
口口口口
口口口口

口口口口
口口口
|③---|
口口口口

口口口口
口口口口
口口口
口 |④---|
42
口口口 |①---|
口口
口口
口口口

②口口③
口口口口 |--②-|
口口口 |③---|
口口口口 |----|
43
口口口口 |①---|
口口 |----|
口口口口
口口口口

口口口口
口口
口口 |②---|
口口口口

口口口口
口口口口
口口
③口口口 |--③-|
44
口口口口 |①---|
口口口口 |----|
口口口口 |----|
口口口① |----|
45
口③口口 |①---|
①口④① |--②-|
①⑤②① |③-④-|
口口⑥口 |⑤-⑥-|
46
口口口口 |①---|
口口口口

口口口口

⑤口口④
口③口口 |②-③-|
口⑥② |④-⑤-|
⑦口口口 |⑥-⑦-|
47
口口口口 |①---|

口口口口
口口口口

口④口口
②口⑤ |②-③-|
口口③口 |④-⑤-|
⑥口口⑦ |⑥-⑦-|
48
口口口口 |①---|
①①口口 |②---|
口⑤②② |③---|
③③④口 |④-⑤-|
49
口口口① |①-②-|
②口口口 |③-④-|
口口口③ |⑤---|
④口⑤口 |----|
50
口口口口 |①---|
口口口口

口口口口

⑤口口④
口③口口 |②-③-|
口⑥② |④-⑤-|
⑦口口口 |⑥-⑦-|
51
口口口口 |①---|

口口口口
口口口口

口口口⑦
②口口 |②-③-|
口⑥③口 |④-⑤-|
口④⑤口 |⑥-⑦-|
52
①①口口 |①---|
口口②② |②---|
③③口口 |③---|
口⑤④口 |④-⑤-|
53
口口①口 |①-②-|
口②口口 |③-④-|
口口③口 |⑤---|
④口口⑤ |----|
54
口口口口 |①---|
口口口口

口口口口

⑤口口④
口③口口 |②-③-|
口⑥② |④-⑤-|
⑦口口口 |⑥-⑦-|
55
口口口口 |①---|

口口口口
口口口口

口④口口
②口⑤ |②-③-|
口口③口 |④-⑤-|
⑥口口⑦ |⑥-⑦-|
56
口口口口 |①---|
①①口口 |②---|
口⑤②② |③---|
③③④口 |④-⑤-|
57
口口口① |①-②-|
②口口口 |③-④-|
口口口③ |⑤---|
④口⑤口 |----|
58
口口口口 |①---|
口口口口

口口口口

⑤口口④
口③口口 |②-③-|
口⑥② |④-⑤-|
⑦口口口 |⑥-⑦-|
59
口口口口 |①---|

口口口口
口口口口

口口口⑦
②口口 |②-③-|
口⑥③口 |④-⑤-|
口④⑤口 |⑥-⑦-|
60
①①口口 |①---|
口口②② |②---|
③③口口 |③---|
口⑤④口 |④-⑤-|
61
口口①口 |①-②-|
口②口口 |③-④-|
口口③口 |⑤---|
④口口⑤ |----|
62
口口口口 |①---|
口①①口 |----|
口①①口 |----|
口口口口 |----|

不確定度: 0

最終更新:2016年04月11日 22:37