にんじゃりばんばん [2]
きゃりーぱみゅぱみゅ

EXTREME

Level: 8
BPM: 130
Notes: 600

1
口口口口 |----|
口口口口 |----|
口口口口 |----|
口口口口 |----|
2
口口口④ |①-②-|
口口口③ |③-④-|
口口②
口口①

口口⑤口
⑥口
⑦口 |⑤-⑥-|
口⑧口 |⑦-⑧-|
3
口口④ |①-②-|
口口③ |③-④-|
口②
口口口①

⑤口
⑥口
口口⑦口 |⑤-⑥-|
口口⑧口 |⑦-⑧-|
4
口④ |①-②-|
口口口③ |③-④-|
口口②
口口①

口口⑤口
⑥口
⑦口 |⑤-⑥-|
口口⑧口 |⑦-⑧-|
5
口口④ |①-②-|
口口③ |③-④-|
口②
口口口①

⑤口
⑥口
口口⑦口 |⑤-⑥-|
口口⑧口 |⑦-⑧-|
6
口④ |①-②-|
口口③ |③-④-|
口口②
口口口①

口⑤口
⑥口
⑦口 |⑤-⑥-|
⑧口 |⑦-⑧-|
7
口口口④ |①-②-|
口③ |③-④-|
口口②
口口①

口口⑤口
口口⑥口
口口 |⑤-⑥-|
口口

口口口口
口口口
口⑦口
⑧口 |⑦-⑧-|
8
⑤④ |①-②-|
⑥③ |③-④-|
口⑦② |⑤-⑥-|
口口⑧① |⑦-⑧-|
9
口⑤③口 |①---|
口③ |--②-|
④口口⑥ |③-④-|
②④⑥① |⑤-⑥-|
10
口口口口 |①---|
口口口
口口口
口口口

④④③口
口②⑤口 |②-③-|
⑧⑥口⑦ |④-⑤⑥|
⑧⑦口 |⑦-⑧-|
11
口口口口 |①---|
口口口
口口口
口口口

口③④④
口⑤②口 |②-③-|
⑦口⑥⑧ |④-⑤⑥|
口⑦⑧ |⑦-⑧-|
12
口口口 |①---|
口口口
口口口
口口口

口口
口口 |②---|
口口
口口口

口口
口口
口 |③---|
口口口口

口④口口
④口⑤口
口口
口口口口 |④-⑤-|
13
①口②口 |①-②-|
口①口② |③-④-|
③口④口
口③口④

⑨口口⑧
⑨⑦⑥⑧
口⑤口口 |⑤-⑥⑦|
⑤口口口 |⑧-⑨-|
14
口口口口 |①---|
口口口
口口口
口口口

口③④④
口⑤②口 |②-③-|
⑦口⑥⑧ |④-⑤⑥|
口⑦⑧ |⑦-⑧-|
15
口口口口 |①---|
口口口
口口口
口口口

口口③口
口②口口 |②-③-|
口口口口
口口口

④④口口
口⑧⑤口
⑧⑥口⑦ |④-⑤⑥|
口口⑦口 |⑦-⑧-|
16
口口 |①---|
口口口口
口口口口
口口口口

口口口
口口口 |②---|
口口
口口口口

口口口口

口口 |③---|
口口口口

口口口口
口口口口
⑤口
④口口口 |④-⑤-|
17
①⑧口口 |①-②-|
⑧⑦⑧② |③-④-|
③⑧口⑥ |⑤-⑥⑦|
口⑤口④ |⑧---|
18
口口口口 |①---|
口口口
口口口
口口口

④④③口
口②⑤口 |②-③-|
⑧⑥口⑦ |④-⑤⑥|
⑧⑦口 |⑦-⑧-|
19
口口口口 |①---|
口口口
口口口
口口口

口③④④
口⑤②口 |②-③-|
⑦口⑥⑧ |④-⑤⑥|
口⑦⑧ |⑦-⑧-|
20
口口口口 |①---|

口口口口
口口口口

口口
口口口 |②---|
口口
口口口口

口口口口
口口口口
|③---|
口口口口

口口口口
口口口口
口口
口口④口 |④-⑤-|
21
口③③① |①-②-|
口④②④ |③-④-|
口口口口
口口口口

⑨口口⑥
⑦口口口
⑤⑤口⑧ |⑤-⑥⑦|
⑤⑤口口 |⑧-⑨-|
22
口口口口 |①---|
口口口
口口口
口口口

口③④④
口⑤②口 |②-③-|
⑦口⑥⑧ |④-⑤⑥|
口⑦⑧ |⑦-⑧-|
23
口口口口 |①---|
口口口
口口口
口口口

口口③口
口②口口 |②-③-|
口口口口
口口口

④④口口
口⑧⑤口
⑧⑥口⑦ |④-⑤⑥|
口口⑦口 |⑦-⑧-|
24
口口口 |①---|
口口
口口
口口口口

口口口口
口口口口 |②---|

口口口口

口口口口
口口
口口 |③---|
口口

口口口口
④口
⑤口口口
口口口口 |④-⑤-|
25
⑥②①口 |①-②-|
②⑤⑤① |③-④-|
口④③口 |⑤---|
④⑤⑤③ |⑥---|
26
|①-②-|
口③④口 |③④⑤⑥|
口⑤⑥口
②口口口

⑦⑧口
⑨口口口
⑩口口口 |⑦-⑧-|
口口口口 |⑨-⑩-|
27
口口口口 |①-②-|
口⑥⑤口 |③④⑤⑥|
口④③口


口口⑧⑦
口口口口
口口⑩口 |⑦-⑧-|
口口⑨ |⑨-⑩-|
28
口口口口 |①-②-|

口口口口
口口②口

口口⑧口
口③ |③④⑤⑥|
⑥⑩口⑤ |⑦-⑧-|
⑨口口⑦ |⑨-⑩-|
29
口口口口 |①-②-|
②④口 |③-④-|
口口
口③

⑤⑥⑦⑧
⑯口
⑮口口⑩ |⑤⑥⑦⑧⑨⑩|
⑭⑬⑫⑪ |⑪⑫⑬⑭⑮⑯|
30
口口 |①---|
口口 |----|
口口
口口口口

口口口②
③口口口
口④ |--②-|
口口口口 |③-④-|
31
口口口口 |①---|
口口口口 |----|
口口口口


口口口口
口口③口
④口口口 |②---|
口口 |③-④-|
32
口口口口 |①---|
口口口 |----|
口口口
口口口

口口口口
口③口口
口口④口 |②---|
口口口 |③-④-|
33
口口口口 |①---|
口口口口 |----|
口口口口
口口

口口口口
口口口口
口 |②---|
口口口 |----|
34
口口口口 |①---|
|----|
口口口
口口口口

口口④③
口口口
口口口口 |②---|
口口口口 |③-④-|
35
口口 |①---|
口口
口口
口口口口

口口
口口口 |②---|
口口
口口

口口口口
口口
口口口 |③---|
口口口

口口口口
口口口口

口口 |④---|
36
口口口口 |①---|
口口口
口口口
口口

口口
口口口 |--②-|
口口口 |----|
口口口 |----|
37
口 |----|
口口口口 |----|
口口口 |①---|
口口口口

口口口

口口口口
口口口口 |②---|
38
口口口口 |①---|
口口口 |----|
口口
口口口口

口口口口
口口③口
④口口 |②---|
口口口口 |③-④-|
39
口口口口 |①---|
口口口口 |----|
口口口口
口口

②口口口
口口口口
④口③口 |--②-|
口口口 |③-④-|
40
口口口口 |①---|
口口口 |----|
口口
口口

口口口口
口口④口
口③口口 |②---|
口口口 |③-④-|
41
口口口口 |①---|
口口口口
口口口口
口口

口口口口
口口口口 |②---|

口口口

口口口口

口口口 |③---|
口口口口

口口

口口
口口口口 |④---|
42
|①---|
口口口口
口口
口口口口

口口
③口口② |--②-|
口口口口 |③---|
口口口口 |----|
43
口口口口 |①---|
口 |----|



口口口口
口口
口口 |②---|


口口③口
口口口口
口口
口口口口 |--③-|
44
口口 |①---|
口口 |----|
口口 |----|
口口 |----|
45
口口 |①---|
口口口口 |--②-|
口口口口
②口①口

口⑤③口
⑤口口③
④口口⑥ |③-④-|
口④⑥口 |⑤-⑥-|
46
口口口口 |①---|
口口口
口口口
口口口

④④③口
口②⑤口 |②-③-|
⑧⑥口⑦ |④-⑤⑥|
⑧⑦口 |⑦-⑧-|
47
口口口口 |①---|
口口口
口口口
口口口

口③④④
口⑤②口 |②-③-|
⑦口⑥⑧ |④-⑤⑥|
口⑦⑧ |⑦-⑧-|
48
口口口 |①---|
口口口
口口口
口口口

口口
口口 |②---|
口口
口口口

口口
口口
口 |③---|
口口口口

口④口口
④口⑤口
口口
口口口口 |④-⑤-|
49
①口②口 |①-②-|
口①口② |③-④-|
③口④口
口③口④

⑨口口⑧
⑨⑦⑥⑧
口⑤口口 |⑤-⑥⑦|
⑤口口口 |⑧-⑨-|
50
口口口口 |①---|
口口口
口口口
口口口

口③④④
口⑤②口 |②-③-|
⑦口⑥⑧ |④-⑤⑥|
口⑦⑧ |⑦-⑧-|
51
口口口口 |①---|
口口口
口口口
口口口

口口③口
口②口口 |②-③-|
口口口口
口口口

④④口口
口⑧⑤口
⑧⑥口⑦ |④-⑤⑥|
口口⑦口 |⑦-⑧-|
52
口口 |①---|
口口口口
口口口口
口口口口

口口口
口口口 |②---|
口口
口口口口

口口口口

口口 |③---|
口口口口

口口口口
口口口口
⑤口
④口口口 |④-⑤-|
53
①⑧口口 |①-②-|
⑧⑦⑧② |③-④-|
③⑧口⑥ |⑤-⑥⑦|
口⑤口④ |⑧---|
54
口口口口 |①---|
口口口
口口口
口口口

④④③口
口②⑤口 |②-③-|
⑧⑥口⑦ |④-⑤⑥|
⑧⑦口 |⑦-⑧-|
55
口口口口 |①---|
口口口
口口口
口口口

口③④④
口⑤②口 |②-③-|
⑦口⑥⑧ |④-⑤⑥|
口⑦⑧ |⑦-⑧-|
56
口口口口 |①---|

口口口口
口口口口

口口
口口口 |②---|
口口
口口口口

口口口口
口口口口
|③---|
口口口口

口口口口
口口口口
口口
口口④口 |④-⑤-|
57
口③③① |①-②-|
口④②④ |③-④-|
口口口口
口口口口

⑨口口⑥
⑦口口口
⑤⑤口⑧ |⑤-⑥⑦|
⑤⑤口口 |⑧-⑨-|
58
口口口口 |①---|
口口口
口口口
口口口

口③④④
口⑤②口 |②-③-|
⑦口⑥⑧ |④-⑤⑥|
口⑦⑧ |⑦-⑧-|
59
口口口口 |①---|
口口口
口口口
口口口

口口③口
口②口口 |②-③-|
口口口口
口口口

④④口口
口⑧⑤口
⑧⑥口⑦ |④-⑤⑥|
口口⑦口 |⑦-⑧-|
60
口口口 |①---|
口口
口口
口口口口

口口口口
口口口口 |②---|

口口口口

口口口口
口口
口口 |③---|
口口

口口口口
④口
⑤口口口
口口口口 |④-⑤-|
61
口②①口 |①-②-|
②⑤⑤① |③-④-|
口④③口 |⑤---|
④⑤⑤③ |----|
62
①①①① |①---|
口口口口 |----|
口①①口 |----|
口口口口 |----|

不確定度: 0

最終更新:2016年04月11日 22:36