KUNG-FU MAMA
seiya-murai feat. ALT

BASIC

Level: 3
BPM: 150
Notes: 323

1
口口口口 |----|
口口口口 |----|
口口口口 |----|
口口口口 |----|
2
口①②口 |①---|
口③④口 |②---|
口口口口 |③---|
口口口口 |④---|
3
口口口口 |①---|
口口口口 |②---|
口①②口 |③---|
口③④口 |④---|
4
口①②口 |①---|
口③④口 |②---|
口口口口 |③---|
口口口口 |④---|
5
口口口口 |①--②|
⑤口口⑤ |--③-|
④①②④ |--④-|
口③③口 |⑤---|
6
口①①口 |①---|
口口口口 |----|
口口口口 |----|
口口口口 |----|
7
口口口口 |①---|
①①口口 |----|
口口①① |----|
口口口口 |----|
8
口口口口 |①---|
口口①① |----|
①①口口 |----|
口口口口 |----|
9
口口口口 |①---|
口口口口 |----|
口口口口 |----|
口①①口 |----|
10
口②口口 |①---|
③①①口 |----|
口④口口 |--②-|
口口口口 |③-④-|
11
口口①口 |----|
口口口② |----|
口口③口 |--①-|
口口口口 |②-③-|
12
口③口口 |----|
口口②口 |----|
口①口口 |--①-|
口口口口 |②-③-|
13
①口口① |①---|
口口口口 |--②-|
②口口② |--③-|
③口口③ |----|
14
口②口口 |①---|
③①①口 |----|
口④口口 |--②-|
口口口口 |③-④-|
15
口口①口 |----|
口口口② |----|
口口③口 |--①-|
口口口口 |②-③-|
16
口③口口 |----|
口口②口 |----|
口①口口 |--①-|
口口口口 |②-③-|
17
①口口① |①---|
口口口口 |--②-|
②口口② |--③-|
③口口③ |----|
18
口口口口 |①---|
口口口口 |----|
口②②口 |②---|
口①①口 |----|
19
口②②口 |①---|
口①①口 |----|
口口口口 |②---|
口口口口 |----|
20
①口口① |①---|
②口口② |----|
口口口口 |②---|
口口口口 |----|
21
口口口口 |①---|
口口口口 |----|
①口口① |②---|
②口口② |----|
22
口②口口 |①---|
③①①口 |----|
口④口口 |--②-|
口口口口 |③-④-|
23
口口①口 |----|
口口口② |----|
口口③口 |--①-|
口口口口 |②-③-|
24
口③口口 |----|
口口②口 |----|
口①口口 |--①-|
口口口口 |②-③-|
25
①口口① |①---|
口口口口 |--②-|
②口口② |--③-|
③口口③ |----|
26
口②口口 |①---|
③①①口 |----|
口④口口 |--②-|
口口口口 |③-④-|
27
口口①口 |----|
口口口② |----|
口口③口 |--①-|
口口口口 |②-③-|
28
口③口口 |----|
口口②口 |----|
口①口口 |--①-|
口口口口 |②-③-|
29
①口口① |①---|
口口口口 |--②-|
②口口② |--③-|
③口口③ |----|
30
口口口口 |①---|
口口口口 |----|
口②②口 |②---|
口①①口 |----|
31
口②②口 |①---|
口①①口 |----|
口口口口 |②---|
口口口口 |----|
32
①口口① |①---|
②口口② |----|
口口口口 |②---|
口口口口 |----|
33
口口口口 |①---|
口口口口 |----|
①口口① |②---|
②口口② |----|
34
口口口口 |①---|
口口口口 |----|
口②口口 |②---|
口口①口 |----|
35
口②③口 |①---|
口口①口 |----|
口口口口 |②---|
口口口口 |③---|
36
口口口口 |①---|
口口口① |----|
口②②口 |②---|
口口口口 |----|
37
口口口口 |①---|
①②③④ |②---|
口口口口 |③---|
口口口口 |④---|
38
口口口口 |①---|
口口口口 |----|
口①①口 |②---|
口②②口 |----|
39
口口口口 |①---|
口口口口 |----|
②口口② |②---|
①口口① |----|
40
口口口口 |①---|
①口口① |----|
口口口口 |----|
口口口口 |----|
41
口①③口 |①---|
口④②口 |②---|
口口口口 |③---|
口口口口 |④---|
42
口口口口 |①---|
口口口口 |----|
口口②口 |②---|
口①口口 |----|
43
口③②口 |①---|
口①口口 |----|
口口口口 |②---|
口口口口 |③---|
44
口口口口 |①---|
①口口口 |----|
口②②口 |②---|
口口口口 |----|
45
口口口口 |①---|
④③②① |②---|
口口口口 |③---|
口口口口 |④---|
46
口口口口 |①---|
口口口口 |----|
口①①口 |②---|
口②②口 |----|
47
口口口口 |①---|
③口口③ |②---|
②口口② |③---|
①口口① |----|
48
口口①口 |----|
口口②口 |①---|
口口③口 |②---|
口口口口 |③---|
49
口④口口 |①---|
口③口口 |②---|
口②口口 |③---|
口①口口 |④---|
50
口口①口 |----|
口②口① |①---|
③口②口 |②---|
口③口口 |③---|
51
④③口口 |①---|
③口②口 |②---|
口②口① |③---|
口口①口 |④---|
52
口口口① |----|
口口口② |①---|
口口口③ |②---|
口口口口 |③---|
53
④口口口 |①---|
口③口口 |②---|
口口②口 |③---|
口口口① |④---|
54
口①口口 |----|
①口②口 |①---|
口②口③ |②---|
口口③口 |③---|
55
口口③④ |①---|
口②口③ |②---|
①口②口 |③---|
口①口口 |④---|
56
①口口口 |----|
②口口口 |①---|
③口口口 |②---|
口口口口 |③---|
57
口口口④ |①---|
口口③口 |②---|
口②口口 |③---|
①口口口 |④---|
58
口①①口 |----|
③②②③ |①---|
口口口口 |②---|
口口口口 |③---|
59
口口口口 |①---|
口口口口 |②---|
①②②①
口口口口

口口口口
口口口口
④口口④ |③---|
口③③口 |④---|
60
口口口口 |----|
口口口口 |①---|
②③③② |②---|
①口口① |③---|
61
③④④③ |①---|
②①①② |②---|
口口口口 |③---|
口口口口 |④---|
62
口口口口 |----|
①①口口 |①---|
口口②② |②---|
③③口口 |③---|
63
口口口口 |①---|
④④③③ |②---|
②②口口 |③---|
口口①① |④---|
64
口①②口 |①---|
口③④口 |②---|
口口口口 |③---|
口口口口 |④---|
65
口口口口 |①---|
④口口④ |②---|
③①①③ |③---|
口②②口 |④---|
66
口①①口 |①---|
口口口口 |----|
口口口口 |----|
口口口口 |----|
67
口口口口 |①---|
①①口口 |----|
口口①① |----|
口口口口 |----|
68
口口口口 |①---|
口口①① |----|
①①口口 |----|
口口口口 |----|
69
口口口口 |①---|
口口口口 |----|
口口口口 |----|
口①①口 |----|
70
口①①口 |①---|
口口口口 |----|
口口口口 |----|
口口口口 |----|
71
①口口① |①---|
口①①口 |----|
口口口口 |----|
口口口口 |----|
72
口口口口 |①---|
口①①口 |----|
①口口① |----|
口口口口 |----|
73
口口口口 |①---|
口口口口 |----|
①口口① |----|
口①①口 |----|
74
口口④口 |①---|
口③口口 |②---|
口口②口 |③---|
口①口口 |④---|
75
口①口口 |①---|
口口②口 |②---|
口③口口 |③---|
口口④口 |④---|
76
口口④口 |①---|
口③口口 |②---|
口口②口 |③---|
口①口口 |④---|
77
口①口口 |①---|
口口②口 |②---|
口③口口 |③---|
口口④口 |④---|


不确定度: 0

タグ:

+ タグ編集
  • タグ:

このサイトはreCAPTCHAによって保護されており、Googleの プライバシーポリシー利用規約 が適用されます。

最終更新:2012年11月10日 14:22