Daydream cafe [2]
Petit Rabbit’s

BASIC

Level: 3
BPM: 150
Notes: 179

1
口口口口 |----|
口口口口 |----|
口口口口 |----|
口口口口 |----|
2
口口口 |①---|
口口
口口
口口口口

口口
口口 |②---|

口口口口

口口口口
口口口③
口口 |③---|
口口口口 |----|
3
口口口口 |①---|
①口口口 |②---|
口②口口 |③---|
口④③口 |④---|
4
口口口口 |①---|
口②口口 |----|
口口①口 |②---|
口口口口 |----|
5
口口口① |①---|
口口②口 |----|
口口口口 |②---|
口口口口 |----|
6
口口口口 |①---|
口口口口 |----|
①口口② |②---|
口口口口 |----|
7
口口口口 |①---|
口③口口 |②---|
口口②口 |③---|
口①口口 |----|
8
口口①口 |①---|
口口②口 |----|
口口口口 |②---|
口口口口 |----|
9
口口口口 |①---|
口口口口 |----|
口①口口 |②---|
口口②口 |----|
10
口口 |①---|
口口 |----|
口口 |----|
口口 |----|
11
口口口口 |----|
口口口口 |----|
口口口口 |----|
口口 |①---|
12
口口口口 |①---|
口口①口 |----|
口②口口 |②---|
口口口口 |----|
13
口口口口 |①---|
口口②口 |----|
口口口口 |②---|
口口①口 |----|
14
口①口口 |①---|
②口口口 |----|
口口口口 |②---|
口口口口 |----|
15
口口口口 |①---|
口口口口 |----|
口①口口 |②---|
口口②口 |----|
16
口口口口 |①---|
口口②口 |----|
口口口① |②---|
口口口口 |----|
17
口②②口 |①---|
口口口口 |--②-|
③①①口 |----|
口口口口 |③---|
18
口口口口 |①---|
口口③口 |②---|
口②口口 |③---|
口口①口 |----|
19
口口口口 |①---|
①口口口 |----|
②口口口 |②---|
口口口口 |----|
20
口口口口 |①---|
口口口口 |----|
口口口口


口口口口
口口口口
口口口口 |----|
口口口 |②---|
21
口口口口 |①---|
②②①① |----|
口口③口 |②---|
口口口口 |③---|
22
口口口口 |①---|
口口口口 |②---|
口口口口 |③---|
口①②③ |----|
23
口口口口 |①---|
口口口① |----|
口口口② |②---|
口口口口 |----|
24
口口口口 |①---|
口④口口 |②---|
口口③口 |③---|
口②口① |④---|
25
②②①① |①---|
口口口口 |----|
口口口口 |②---|
口口口口 |----|
26
口口口口 |①---|
口③①口 |②---|
口④②口 |③---|
口口口口 |④---|
27
口口口口 |①---|
口口口口 |②---|
口口口口 |③---|
③②①口 |----|
28
口口口口 |①---|

口口口口
口口口口

口口口口
口口口 |②---|
口 |③---|
口口口口

口口口口
口口口口
口口口
口口口口 |④---|
29
口口口口 |①---|
口③③口 |②---|
口②②口 |③---|
口①①口 |----|
30
①②③口 |①---|
口口口口 |②---|
口口口口 |③---|
口口口口 |----|
31
口口口口 |①---|
口③②① |②---|
口口口口 |③---|
口口口口 |----|
32
口口口口 |①---|
口口口口 |----|
口 |----|
口 |----|
33
口口口口 |①---|
口③口口 |②---|
②口④口 |③---|
口 |④---|
34
口口口口 |①---|
口口口 |----|
口口口 |----|
口口口 |----|
35
口口口口 |①---|
口口口 |----|
口口口 |----|
口口 |----|
36
口 |①---|
口 |----|
口 |----|
口口口 |----|
37
口口口口 |①---|
①②③口 |②---|
口 |③---|
口④口口 |④---|
38
口口口 |①---|
口口
口口
口口口口

口口
口口 |②---|

口口口口

口口口口
口口口③
口口 |③---|
口口口口 |----|
39
①口口口 |①---|
口②口口 |②---|
口口③口 |③---|
口口口④ |④---|
40
口口口口 |①---|
口口口口 |----|
口口②② |②---|
①①口口 |----|
41
口①①口 |①---|
口②②口 |②---|
口③③口 |③---|
口口口口 |----|
42
④口口口 |①---|
③口口口 |②---|
②口口口 |③---|
①口口口 |④---|
43
口①②③ |①---|
口口口口 |②---|
口口口口 |③---|
口口口口 |----|
44
口口口口 |①---|
口①口口 |----|
口口②口 |②---|
口口口口 |----|
45
口口口口 |①---|
口口口口 |----|
口口口口 |----|
口①②口 |②---|
46
口口 |①---|
口口
口口
口口口口

口口
口口口 |②---|

口口口口

口口口口
③口口口
口口口 |③---|
口口口口 |----|
47
口口口① |①---|
口口②口 |②---|
口③口口 |③---|
④口口口 |④---|
48
口口口口 |①---|
口口口口 |----|
②②口口 |②---|
口口①① |----|
49
口①①口 |①---|
口②②口 |②---|
口③③口 |③---|
口口口口 |----|
50
口口口④ |①---|
口口口③ |②---|
口口口② |③---|
口口口① |④---|
51
③②①口 |①---|
口口口口 |②---|
口口口口 |③---|
口口口口 |----|
52
口口口口 |①---|
口口①口 |----|
口②口口 |②---|
口口口口 |----|
53
口口口 |①---|
口口口 |----|
口口口 |----|
口口口 |----|
54
口口口口 |①---|
口口口口 |----|
②口口③ |②---|
口①口 |③---|
55
口①①口 |①---|
口②②口 |--②-|
口③③口 |----|
口口口口 |③---|
56
口口口口 |--①-|
②口口② |--②-|
口口口口 |----|
口①①口 |----|

不確定度: 0

最終更新:2016年04月11日 22:36