Dragon Night [2]
SEKAI NO OWARI

ADVANCED

Level: 6
BPM: 124
Notes: 493

1
口口口口 |----|
口口口口 |----|
口口口口 |----|
口口口口 |----|
2
口口口口 |----|
口口口口 |----|
口口口口 |----|
口口口口 |----|
3
口口口口 |----|
口口口口 |----|
口口口口 |----|
口①口口 |---①|
4
口口口口 |①-②③|
口④⑤口 |--④⑤|
口②③口
口口①口

⑥口口⑦
口口口口
口⑧⑨口 |--⑥-|
口口口口 |⑦-⑧⑨|
5
口③④口 |--①②|
口⑤口口 |--③④|
口口口口 |----|
①口口② |---⑤|
6
口口口口 |①-②-|
④口①口 |③-④-|
口口口口
②口口③

口⑧⑨口
口⑥⑦⑤
口口口口 |⑤-⑥⑦|
口口口口 |-⑧⑨-|
7
口口口⑤ |①-②③|
④口口口 |-④--|
①⑥⑥口 |⑤---|
口②③口 |⑥---|
8
口②③口 |①-②③|
①④⑤口 |--④⑤|
口⑥⑦口 |--⑥⑦|
口⑧⑨口 |--⑧⑨|
9
①口口② |--①②|
③⑦口④ |③④⑤⑥|
⑤口口⑥ |----|
口口口口 |---⑦|
10
④口口口 |①-②③|
口口①口 |--④-|
口②③口
口口口口

口口口⑤
⑥⑨口口
口⑦⑧口 |⑤-⑥-|
口口口口 |⑦⑧-⑨|
11
②口口口 |①-②-|
口口①口 |③④⑤⑥|
口⑤⑥口
口③④口

⑦口口⑦
口口口口
口口口口 |----|
口口口口 |--⑦-|
12
口口口口 |①---|
|----|
口口口口 |----|
口口口口 |----|
13
⑨口口口 |①-②-|
②③④ |③-④-|
⑤⑥⑦⑧ |⑤-⑥-|
口口口口 |⑦-⑧⑨|
14
口①口口 |①-②③|
口口③② |--④⑤|
④⑤口口
口口口口

⑧⑨口口
口口口口
口口口口 |--⑥⑦|
口口⑦⑥ |--⑧⑨|
15
口口口口 |--①②|
口口②① |--③④|

口口口口

口口口口
⑥口口口
口口 |----|
口口口口 |⑤--⑥|
16
口口口口 |①-②-|
口①口② |③-④⑤|
口口口③
口口⑤④

口口口口
⑧⑨口口
⑦口口口 |--⑥-|
⑥口口口 |⑦-⑧⑨|
17
口⑥⑦口 |-①②③|
⑧口口⑨ |④⑤⑥⑦|
口④⑤口 |⑧---|
口②③① |⑨---|
18
口④⑤口 |①-②③|
口②③口 |--④⑤|
口口口口
①口口口

口口口口
口⑧⑨口
口⑥⑦口 |--⑥⑦|
口口口口 |--⑧⑨|
19
口③④口 |--①②|
口口口口 |--③④|
口口口口
口①②口

口口口口
口口口口
口口口口 |----|
口⑤口口 |---⑤|
20
口口口口 |①-②③|
④口口口 |--④-|
口②③口
口口①口

⑥口口⑦
口口口⑤
口⑧⑨口 |⑤-⑥-|
口口口口 |⑦-⑧⑨|
21
口②③口 |①-②③|
①口口口 |--④⑤|
口口口口
口④⑤口

口口口口

口口口口 |----|
口口口口 |⑥-|

口口口口
口口⑧口
口口口⑦
口口口口 |⑦⑧|
22
口口口① |①---|
口口口
口口口口
口口口口

口口口口
|②-|
口口口口
口口口口

⑤口口口
口④口 |③④|
③口口口 |⑤---|
口口口口

口口口口

口口口口
口口口口 |⑥-|

口口口口
口口⑧口
口口口⑦
口口口口 |⑦⑧|
23
口④④① |①---|
口口口 |②-③④|
口③③口
②口口②

口口口口
⑤口口口
口口口口 |----|
口⑥⑦口 |⑤-⑥⑦|
24
口⑦⑧口 |-①-②|
⑨⑤⑥① |③④⑤⑥|
口③④口 |⑦⑧--|
口口口② |--⑨-|
25
口口口口 |①-②-|
口口口① |③-④-|
②口口③
④口口口

口口口口

口口口口 |⑤---|
口口口⑤ |⑥-|

口口口口
口口⑧口
口口口⑦
口口口口 |⑦⑧|
26
口口口① |①---|
口口口
口口口口
口口口口

口口口口
|②-|
口口口口
口口口口

⑤口口口
口④口 |③④|
③口口口 |⑤---|
口口口口

口口口口

口口口口
口口口口 |⑥-|

口口口口
口口⑧口
口口口⑦
口口口口 |⑦⑧|
27
⑤④④① |①---|
⑥⑦口 |②-③④|
口③③口 |----|
②口口② |⑤-⑥⑦|
28
口⑥⑦口 |①②-③|
⑩⑧⑨口 |④⑤⑥⑦|
口①②③ |⑧⑨--|
口④⑤口 |--⑩-|
29
口口口口 |①-②-|
口口口① |③-④-|
②口口③
口④④口

口⑤⑤口
⑥⑦⑧⑨
口口口口 |--⑤-|
口口口口 |⑥⑦⑧⑨|
30
⑦口口⑧ |①-②-|
⑤口口⑥ |--③④|
口口④③ |⑤-⑥-|
①口口② |⑦-⑧-|
31
口②②口 |--①-|
口口口口 |--②-|
口①①口
口口口口

口口口口
口⑥⑦口
口④⑤口 |--③-|
③口口③ |④⑤⑥⑦|
32
①口口② |①-②-|
⑧口口⑦ |--③④|
⑥口口⑤ |⑤-⑥-|
口④③口 |⑦-⑧-|
33
①口口口 |--①-|
口②③口 |--②③|
④口口⑤ |④-⑤-|
口⑥⑦口 |-⑥⑦-|
34
①口口② |①-②-|
口③④口 |--③④|
⑤口口⑥ |⑤-⑥-|
⑦口口⑧ |⑦-⑧-|
35
③口口② |--①-|
①④⑤口 |--②-|
口⑥⑦口 |--③-|
口口口口 |④⑤⑥⑦|
36
⑤口口⑥ |①-②-|
口③④口 |--③④|
⑦口口⑧ |⑤-⑥-|
①口口② |⑦-⑧-|
37
①口口口 |----|
口④⑤② |--①-|
③⑥⑦口 |②-③-|
口口口口 |④⑤⑥⑦|
38
②③⑤④ |①-②③|
⑥⑦口口 |④⑤⑥⑦|
口口口口
①口口①

口口口口
口口口⑧
⑪⑫⑩⑨ |⑧-⑨⑩|
口口⑭⑬ |⑪⑫⑬⑭|
39
②③⑤④ |①-②③|
⑥⑦口⑧ |④⑤⑥⑦|
⑪⑫⑩⑨ |⑧-⑨⑩|
①口⑭⑬ |⑪⑫⑬⑭|
40
⑤⑥④③ |①②③④|
⑨⑩⑧⑦ |⑤⑥⑦⑧|
⑬⑭⑫⑪ |⑨⑩⑪⑫|
①②⑯⑮ |⑬⑭⑮⑯|
41
⑤⑥④③ |①②③④|
口口⑧⑦ |⑤⑥⑦⑧|
口口口口
①②口口

口口口口
⑨⑩口口
⑬口⑫⑪ |⑨⑩⑪⑫|
⑬口口口 |⑬---|
42
④口口② |①②-③|
③⑨⑩① |④-⑤⑥|
⑧口口⑥ |-⑦⑧-|
⑦口口⑤ |⑨-⑩-|
43
②口口④ |①②-③|
①⑩口③ |④-⑤⑥|
⑥⑨口⑧ |-⑦⑧-|
⑤口口⑦ |⑨-⑩-|
44
口口口 |①---|
口口口 |----|
口口口 |----|
口口口 |----|
45
口口口 |----|
|----|
口口口口 |----|
口口口口 |①-|

口口口口
口口③口
口口口②
口口口口 |②③|
46
口口口① |①---|
口口口
口口口口
口口口口

口口口口
|②-|
口口口口
口口口口

⑤口口口
口④口 |③④|
③口口口 |⑤---|
口口口口

口口口口

口口口口
口口口口 |⑥-|

口口口口
口口⑧口
口口口⑦
口口口口 |⑦⑧|
47
口④④① |①---|
口口口 |②-③④|
口③③口
②口口②

口口口口
⑤口口口
口口口口 |----|
口⑥⑦口 |⑤-⑥⑦|
48
口⑦⑧口 |-①-②|
⑨⑤⑥① |③④⑤⑥|
口③④口 |⑦⑧--|
口口口② |--⑨-|
49
口口口口 |①-②-|
口口口① |③-④-|
②口口③
④口口口

口口口口

口口口口 |⑤---|
口口口⑤ |⑥-|

口口口口
口口⑧口
口口口⑦
口口口口 |⑦⑧|
50
口口口① |①---|
口口口
口口口口
口口口口

口口口口
|②-|
口口口口
口口口口

⑤口口口
口④口 |③④|
③口口口 |⑤---|
口口口口

口口口口

口口口口
口口口口 |⑥-|

口口口口
口口⑧口
口口口⑦
口口口口 |⑦⑧|
51
⑤④④① |①---|
⑥⑦口 |②-③④|
口③③口 |----|
②口口② |⑤-⑥⑦|
52
口⑥⑦口 |①②-③|
⑩⑧⑨口 |④⑤⑥⑦|
口①②③ |⑧⑨--|
口④⑤口 |--⑩-|
53
口口口口 |①---|
口口口① |----|
口③③口 |②---|
口②②口 |③---|
54
|①-②-|
口口口② |--③-|
口口口口
口口③口

口口口口
口口⑤⑦
口口④⑥ |④-⑤-|
口口口口 |⑥-⑦-|
55
口口口② |--①-|
口口⑤口 |--②-|
口口④口 |--③-|
口口③① |④-⑤-|
56
口口①② |①-②-|
口口⑥⑦ |--③-|
口③④⑤ |④-⑤-|
口口口口 |⑥-⑦-|
57
口口②口 |--①-|
口口口口 |--②-|
口口口口
口口口①

口口口口
口口③口
口口④口 |③-④-|
口口口⑤ |--⑤-|
58
口口口 |①-②-|
口口口② |--③-|
③口口①
口口口口

⑤口⑦口
④口⑥口
口口口口 |④-⑤-|
口口口口 |⑥-⑦-|
59
口口口② |--①-|
口⑤口口 |--②-|
口④口口 |--③-|
口③口① |④-⑤-|
60
⑦①⑥② |①-②-|
口口⑤口 |--③-|
口口④口 |④-⑤-|
口口③口 |⑥-⑦-|
61
口⑤⑥口 |①---|
口⑦⑧④ |--②-|
③口口口 |③-④-|
口①①② |⑤⑥⑦⑧|
62
口口口口 |①---|
口口口口 |----|
口①口口 |----|
口口口口 |----|

不確定度: 0

最終更新:2016年04月11日 22:34