Highschool ♡ love
E-girls

BASIC

Level: 3
BPM: 128
Notes: 295

1
口口口口 |----|
口口口口 |----|
口口口口 |----|
口口口口 |----|
2
口口口口 |①---|
口①①口 |----|
口口口口 |----|
口口口口 |----|
3
口口口口 |①---|
口口口口 |----|
口①①口 |----|
口口口口 |----|
4
口口口口 |①---|
口口口口 |----|
口②②口 |②---|
口①①口 |----|
5
④口口④ |①---|
③口口③ |②---|
②口口② |③---|
①口口① |④---|
6
口口口口 |①---|
②②②② |--②-|
①①①① |----|
口口口口 |----|
7
口口口口 |----|
口口口口 |----|
口口口口 |----|
口口口口 |----|
8
口口口口 |----|
口口口口 |----|
口口口口 |----|
口口口口 |----|
9
口口口口 |----|
口口口口 |----|
口口口口 |----|
口口口口 |----|
10
口口口口 |----|
口①口口 |----|
口口口口 |----|
口口口口 |①---|
11
口口口口 |①---|
口口①口 |----|
口②口口 |②---|
口口③口 |③---|
12
口口口口 |①---|
口口②口 |----|
口口口口 |②---|
口①口口 |----|
13
②③③① |①---|
口④④口 |②---|
口口口口 |③---|
口口口口 |④---|
14
口口口口 |①---|
口口口口 |②---|
④③②① |③---|
口口口口 |④---|
15
口口口① |①---|
口口口口 |②---|
口口②口 |----|
口口口口 |----|
16
①口口口 |①---|
口口口口 |②---|
口②口口 |----|
口口口口 |----|
17
口④口口 |①---|
口口③口 |②---|
口②口口 |③---|
口口①口 |④---|
18
口口①口 |①---|
口②口口 |②---|
口口口口 |----|
口口口口 |----|
19
口④③口 |①---|
口②口口 |②---|
口口①口 |③---|
口口口口 |④---|
20
口口口口 |①---|
口口口① |②---|
口口②口 |③---|
口③口口 |----|
21
②口口② |①---|
口③③口 |②---|
口①①口 |③---|
口口口口 |----|
22
口口口口 |①---|
口口口口 |----|
口①口口 |②---|
口口②口 |----|
23
口①口口 |①---|
口口②口 |②---|
口③口口 |③---|
口口④口 |④---|
24
口口口口 |①---|
口口②口 |----|
口口口口 |②---|
口①口口 |----|
25
④③②① |①---|
口口口口 |②---|
口口口口 |③---|
口口口口 |④---|
26
口口口口 |①---|
①②口口 |②---|
口口口口 |----|
口口口口 |----|
27
口口口口 |①---|
②①①② |----|
③①①③ |②---|
口口口口 |③---|
28
②口口② |①---|
口①①口 |----|
③①①③ |②---|
口口口口 |③---|
29
口口口口 |----|
口①①口 |①---|
口②②口 |②---|
口③③口 |③---|
30
①①①① |①---|
②②②② |②---|
③③③③ |③---|
④④④④ |④---|
31
口口口口 |①---|
①①①① |----|
口②②口 |----|
口口口口 |②---|
32
①口口① |①---|
口②口口 |②---|
口口③口 |③---|
口④口口 |④---|
33
口口口口 |①---|
口口①① |②---|
口口②② |③---|
④口③③ |④---|
34
口口口口 |①---|
①①③③ |②---|
口口口口 |③---|
④口口② |④---|
35
口口口口 |①---|
①①口口 |②---|
③④④③ |③---|
口②②口 |④---|
36
①口口① |①---|
②口口口 |②---|
③口口口 |③---|
④口口口 |④---|
37
口口口口 |①---|
口口①① |②---|
口口②② |③---|
④口③③ |④---|
38
口口口口 |①---|
①①③③ |②---|
口口口口 |③---|
④口口② |④---|
39
④口口④ |①---|
①①口口 |②---|
口③③口 |③---|
口②②口 |④---|
40
口口口口 |①---|
口口口口 |②---|
口④③口 |③---|
口②①口 |④---|
41
①①①① |①---|
②②②② |②---|
③③③③ |③---|
口口口口 |----|
42
口口口口 |①---|
口口口口 |②---|
口③④口 |③---|
口①②口 |④---|
43
口①①口 |①---|
②口口② |②---|
③口口③ |③---|
口口口口 |----|
44
口口口口 |①---|
口口口口 |②---|
口③④口 |③---|
口①②口 |④---|
45
①①①① |①---|
②②②② |②---|
③③③③ |③---|
口口口口 |----|
46
口口口口 |①---|
③③口口 |②---|
口口②② |③---|
①①④④ |④---|
47
①口口① |①---|
②④④② |②---|
③口口③ |③---|
口口口口 |④---|
48
口口口口 |①---|
口口口口 |②---|
口④③口 |③---|
口②①口 |④---|
49
①①①① |①---|
②②②② |②---|
③③③③ |③---|
口口口口 |----|
50
口①②口 |①---|
口③④口 |②---|
口口口口 |③---|
口口口口 |④---|
51
口口口口 |①---|
③③③③ |②---|
②②②② |③---|
①①①① |----|
52
口口口口 |①---|
口口口口 |②---|
口④③口 |③---|
口②①口 |④---|
53
①①①① |①---|
②②②② |②---|
③③③③ |③---|
口口口口 |----|
54
口①②口 |①---|
口③④口 |②---|
口口口口 |③---|
口口口口 |④---|
55
口口口口 |①---|
③③③③ |②---|
②②②② |③---|
①①①① |----|

不確定度: 0

最終更新:2016年04月11日 22:30